Featured TV Shows


All Night S01E09

Posted By: Tavaz
1080p (FullHD) / WEBRip IMDb
All Night S01E09

All Night S01E09
WEBRip | MKV | 1920x1080 | English | H264 @ 4297 kbps | AAC @ 63 kbps | 22 min 20 s | 697 MiB
Subtitles: Spanish, English
Genre: Comedy

An overnight, lock-in graduation party in which a group of new grads will do whatever it takes to make their remaining high school dreams come true.

All.Night.S01E09.1080p.WEB.h264-TBS.mkv (697.2 MB)



General
Unique ID : 243493736154816219422291178741100715333 (0xB72F3011E6562E8FBBE9F7EFD72C1D45)
Complete name : ./All.Night.S01E09.1080p.WEB.h264-TBS.mkv
Format : Matroska
Format version : Version 4 / Version 2
File size : 697 MiB
Duration : 22 min 20 s
Overall bit rate : 4 363 kb/s
Encoded date : UTC 2018-05-13 09:39:03
Writing application : mkvmerge v13.0.0 ('The Juggler') 64bit
Writing library : libebml v1.3.4 + libmatroska v1.4.5

Video
ID : 1
Format : AVC
Format/Info : Advanced Video Codec
Format profile : High@L4
Format settings : CABAC / 4 Ref Frames
Format settings, CABAC : Yes
Format settings, RefFrames : 4 frames
Codec ID : V_MPEG4/ISO/AVC
Duration : 22 min 20 s
Bit rate : 4 297 kb/s
Width : 1 920 pixels
Height : 1 080 pixels
Display aspect ratio : 16:9
Frame rate mode : Constant
Frame rate : 23.976 (24000/1001) FPS
Color space : YUV
Chroma subsampling : 4:2:0
Bit depth : 8 bits
Scan type : Progressive
Bits/(Pixel*Frame) : 0.086
Stream size : 687 MiB (98%)
Language : English
Default : Yes
Forced : No

Audio
ID : 2
Format : AAC
Format/Info : Advanced Audio Codec
Format profile : HE-AAC / LC
Format settings : Explicit
Codec ID : A_AAC-2
Duration : 22 min 20 s
Bit rate : 64.0 kb/s
Channel(s) : 2 channels
Channel positions : Front: L R
Sampling rate : 48.0 kHz / 24.0 kHz
Frame rate : 23.438 FPS (1024 SPF)
Compression mode : Lossy
Delay relative to video : -83 ms
Stream size : 10.2 MiB (1%)
Language : English
Default : Yes
Forced : No

Text #1
ID : 3
Format : UTF-8
Codec ID : S_TEXT/UTF8
Codec ID/Info : UTF-8 Plain Text
Duration : 21 min 26 s
Bit rate : 103 b/s
Count of elements : 496
Stream size : 16.3 KiB (0%)
Language : English
Default : No
Forced : No

Text #2
ID : 4
Format : UTF-8
Codec ID : S_TEXT/UTF8
Codec ID/Info : UTF-8 Plain Text
Duration : 21 min 20 s
Bit rate : 107 b/s
Count of elements : 497
Stream size : 16.8 KiB (0%)
Language : Spanish
Default : No
Forced : No





All Night S01E09


All Night S01E09


All Night S01E09


All Night S01E09


All Night S01E09

All episodes