Featured TV Shows


All Night S01E10

Posted By: Tavaz
1080p (FullHD) / WEBRip IMDb
All Night S01E10

All Night S01E10
WEBRip | MKV | 1920x1080 | English | H264 @ 5474 kbps | AAC @ 63 kbps | 23 min 32 s | 933 MiB
Genre: Comedy

An overnight, lock-in graduation party in which a group of new grads will do whatever it takes to make their remaining high school dreams come true.

ce85a84a9bda49938fcee9aa834e5f4e.mkv (932.8 MB)



General
Unique ID : 183142569523081942925177164099815841070 (0x89C7F9D2DB0E610A9F1FD44E928D9D2E)
Complete name : ./ce85a84a9bda49938fcee9aa834e5f4e.mkv
Format : Matroska
Format version : Version 4 / Version 2
File size : 933 MiB
Duration : 23 min 32 s
Overall bit rate : 5 539 kb/s
Encoded date : UTC 2018-10-09 18:00:48
Writing application : mkvmerge v13.0.0 ('The Juggler') 64bit
Writing library : libebml v1.3.4 + libmatroska v1.4.5

Video
ID : 1
Format : AVC
Format/Info : Advanced Video Codec
Format profile : High@L4
Format settings : CABAC / 4 Ref Frames
Format settings, CABAC : Yes
Format settings, RefFrames : 4 frames
Codec ID : V_MPEG4/ISO/AVC
Duration : 23 min 32 s
Bit rate : 5 474 kb/s
Width : 1 920 pixels
Height : 1 080 pixels
Display aspect ratio : 16:9
Frame rate mode : Constant
Frame rate : 23.976 (24000/1001) FPS
Color space : YUV
Chroma subsampling : 4:2:0
Bit depth : 8 bits
Scan type : Progressive
Bits/(Pixel*Frame) : 0.110
Stream size : 922 MiB (99%)
Language : English
Default : Yes
Forced : No

Audio
ID : 2
Format : AAC
Format/Info : Advanced Audio Codec
Format profile : HE-AAC / LC
Format settings : Explicit
Codec ID : A_AAC-2
Duration : 23 min 32 s
Bit rate : 64.0 kb/s
Channel(s) : 2 channels
Channel positions : Front: L R
Sampling rate : 48.0 kHz / 24.0 kHz
Frame rate : 23.438 FPS (1024 SPF)
Compression mode : Lossy
Stream size : 10.8 MiB (1%)
Language : English
Default : Yes
Forced : No





All Night S01E10


All Night S01E10


All Night S01E10


All Night S01E10


All Night S01E10

All episodes