Index
# A B C D E F G H I J K L M N O P Q R S T U V W Y Z
Tags
Language
Tags

Featured TV Shows


Alle unter einem Dach S07E22

Posted By: Tavaz
720p (HD) / WEBRip IMDb
Alle unter einem Dach S07E22

Alle unter einem Dach S07E22
WEB-DL | MKV | 960x720 | English / Deutsch | H264 @ 3947 kbps | AC-3 @ 384 kbps | 22 min 8 s | 736 MiB
Genre: Komödie


Ihr Herz ist größer als ihr Haus, und so steht’s auch mit dem Familiensinn der Winslows: Er übertrifft das Leistungsvermögen ihrer Geldbörsen oft um Längen. Acht leben da unter einem Dach: Mutter Harriette Winslow, der uneingeschränkte Boss der Familie, ihr Gatte Carl, ein Teddybär von einem Mann, Grandma und die Kinder. Der chaotische Winslow-Clan und nicht zuletzt der tollpatschige Nachbarsjunge Steve Urkel machten die Serie zu einer der erfolgreichsten Sitcoms in den USA.

Alle.unter.einem.Dach.S07E22.Die.Nacht.der.Naechte.mkv (735.9 MB)



General
Unique ID : 202003747916384250437311112623554990225 (0x97F881B7079A1CB4833CEBD6EA169091)
Complete name : ./Alle.unter.einem.Dach.S07E22.Die.Nacht.der.Naechte.mkv
Format : Matroska
Format version : Version 4 / Version 2
File size : 736 MiB
Duration : 22 min 8 s
Overall bit rate : 4 648 kb/s
Encoded date : UTC 2015-04-11 11:57:02
Writing application : mkvmerge v6.8.0 ('Theme for Great Cities') 32bit built on Mar 2 2014 21:27:07
Writing library : libebml v1.3.0 + libmatroska v1.4.1

Video
ID : 1
Format : AVC
Format/Info : Advanced Video Codec
Format profile : Main@L3.1
Format settings : 2 Ref Frames
Format settings, CABAC : No
Format settings, RefFrames : 2 frames
Codec ID : V_MPEG4/ISO/AVC
Duration : 22 min 8 s
Bit rate : 3 948 kb/s
Width : 960 pixels
Height : 720 pixels
Display aspect ratio : 4:3
Frame rate mode : Constant
Frame rate : 23.976 (24000/1001) FPS
Color space : YUV
Chroma subsampling : 4:2:0
Bit depth : 8 bits
Scan type : Progressive
Bits/(Pixel*Frame) : 0.238
Stream size : 625 MiB (85%)
Language : German
Default : Yes
Forced : No
Color range : Limited
Color primaries : BT.709
Transfer characteristics : BT.709
Matrix coefficients : BT.709

Audio #1
ID : 2
Format : AC-3
Format/Info : Audio Coding 3
Format settings, Endianness : Big
Codec ID : A_AC3
Duration : 22 min 8 s
Bit rate mode : Constant
Bit rate : 384 kb/s
Channel(s) : 2 channels
Channel positions : Front: L R
Sampling rate : 48.0 kHz
Frame rate : 31.250 FPS (1536 SPF)
Bit depth : 16 bits
Compression mode : Lossy
Stream size : 60.8 MiB (8%)
Language : German
Service kind : Complete Main
Default : Yes
Forced : Yes

Audio #2
ID : 3
Format : AC-3
Format/Info : Audio Coding 3
Format settings, Endianness : Big
Codec ID : A_AC3
Duration : 22 min 8 s
Bit rate mode : Constant
Bit rate : 224 kb/s
Channel(s) : 2 channels
Channel positions : Front: L R
Sampling rate : 48.0 kHz
Frame rate : 31.250 FPS (1536 SPF)
Bit depth : 16 bits
Compression mode : Lossy
Stream size : 35.5 MiB (5%)
Language : English
Service kind : Complete Main
Default : No
Forced : No





Alle unter einem Dach S07E22


Alle unter einem Dach S07E22


Alle unter einem Dach S07E22


Alle unter einem Dach S07E22


Alle unter einem Dach S07E22

All episodes