Featured TV Shows


Alone Together S02E10

Posted By: Tavaz
1080p (FullHD) / WEB-DL IMDb
Alone Together S02E10

Alone Together S02E10
WEB-DL | MKV | 1920x1080 | English | H264 @ 5156 kbps | AAC @ 63 kbps | 20 min 52 s | 780 MiB
Subtitles: English
Genre: Comedy

Esther and Benji are platonic best friends who want nothing more than to be accepted by the vain and status-obsessed culture of Los Angeles. Despite their sometimes contentious relationship, when push comes to shove, they’ve got each other’s back … And they have nobody else to hang out with.

aaf88d8942a54d038ef904cf35a632e2.mkv (779.6 MB)



General
Unique ID : 77886427002839060404774790354917036334 (0x3A986154F54F16DFCF010B06968A912E)
Complete name : ./aaf88d8942a54d038ef904cf35a632e2.mkv
Format : Matroska
Format version : Version 4 / Version 2
File size : 780 MiB
Duration : 20 min 52 s
Overall bit rate : 5 222 kb/s
Encoded date : UTC 2018-08-03 17:01:31
Writing application : mkvmerge v20.0.0 ('I Am The Sun') 32-bit
Writing library : libebml v1.3.5 + libmatroska v1.4.8

Video
ID : 1
Format : AVC
Format/Info : Advanced Video Codec
Format profile : High@L4
Format settings : CABAC / 4 Ref Frames
Format settings, CABAC : Yes
Format settings, RefFrames : 4 frames
Codec ID : V_MPEG4/ISO/AVC
Duration : 20 min 52 s
Bit rate : 5 156 kb/s
Width : 1 920 pixels
Height : 1 080 pixels
Display aspect ratio : 16:9
Frame rate mode : Constant
Frame rate : 23.976 (24000/1001) FPS
Color space : YUV
Chroma subsampling : 4:2:0
Bit depth : 8 bits
Scan type : Progressive
Bits/(Pixel*Frame) : 0.104
Stream size : 770 MiB (99%)
Default : Yes
Forced : No

Audio
ID : 2
Format : AAC
Format/Info : Advanced Audio Codec
Format profile : HE-AAC / LC
Format settings : Explicit
Codec ID : A_AAC-2
Duration : 20 min 52 s
Bit rate : 64.0 kb/s
Channel(s) : 2 channels
Channel positions : Front: L R
Sampling rate : 48.0 kHz / 24.0 kHz
Frame rate : 23.438 FPS (1024 SPF)
Compression mode : Lossy
Stream size : 9.56 MiB (1%)
Default : Yes
Forced : No

Text
ID : 3
Format : UTF-8
Codec ID : S_TEXT/UTF8
Codec ID/Info : UTF-8 Plain Text
Duration : 20 min 50 s
Bit rate : 127 b/s
Count of elements : 592
Stream size : 19.5 KiB (0%)
Language : English
Default : No
Forced : No

Menu
00:00:00.000 : en:Chapter 1
00:05:01.166 : en:Chapter 2
00:11:17.583 : en:Chapter 3
00:19:31.125 : en:Chapter 4





Alone Together S02E10


Alone Together S02E10


Alone Together S02E10


Alone Together S02E10


Alone Together S02E10

All episodes