Index
# A B C D E F G H I J K L M N O P Q R S T U V W Y Z
Tags
Language
Tags

Featured TV Shows


American Horror Story S05E01

Posted By: Tavaz
720p (HD) / BDRip IMDb
American Horror Story S05E01

American Horror Story S05E01
BDRip | MKV | 1280x720 | English | H264 @ 2300 kbps | AC-3 @ 384 kbps | 1 h 2 min | 1.17 GiB
Subtitles: English
Genre: Drama, Misteri


An anthology horror drama series centering on different characters and locations, including a house with a murderous past, an asylum, a witch coven, a freak show, a hotel, a farmhouse in Roanoke and a cult.

d9a0958f95cf40dcaf18eae9a069444b.mkv (1.2 GB)



General
Unique ID : 204706964622690928382827752504781289897 (0x9A012096AD4472A9B1AEF6C3E6A5B9A9)
Complete name : ./d9a0958f95cf40dcaf18eae9a069444b.mkv
Format : Matroska
Format version : Version 4 / Version 2
File size : 1.17 GiB
Duration : 1 h 2 min
Overall bit rate mode : Variable
Overall bit rate : 2 685 kb/s
Movie name : American Horror Story S05E01 Checking In 720p Bluray DD5.1 x264-PSYPHER
Encoded date : UTC 2017-01-16 10:03:32
Writing application : mkvmerge v9.7.1 ('Pandemonium') 32bit
Writing library : libebml v1.3.4 + libmatroska v1.4.5

Video
ID : 1
Format : AVC
Format/Info : Advanced Video Codec
Format profile : High 10@L4.1
Format settings : CABAC / 5 Ref Frames
Format settings, CABAC : Yes
Format settings, RefFrames : 5 frames
Codec ID : V_MPEG4/ISO/AVC
Duration : 1 h 2 min
Bit rate mode : Variable
Bit rate : 2 300 kb/s
Maximum bit rate : 62.5 Mb/s
Width : 1 280 pixels
Height : 720 pixels
Display aspect ratio : 16:9
Frame rate mode : Constant
Frame rate : 23.976 (24000/1001) FPS
Color space : YUV
Chroma subsampling : 4:2:0
Bit depth : 10 bits
Scan type : Progressive
Bits/(Pixel*Frame) : 0.104
Stream size : 1.00 GiB (86%)
Writing library : x264 core 148 r2694 3b70645
Encoding settings : cabac=1 / ref=5 / deblock=1:-1:-1 / analyse=0x3:0x113 / me=umh / subme=8 / psy=1 / psy_rd=1.00:0.15 / mixed_ref=1 / me_range=16 / chroma_me=1 / trellis=1 / 8x8dct=1 / cqm=0 / deadzone=21,11 / fast_pskip=1 / chroma_qp_offset=-3 / threads=18 / lookahead_threads=3 / sliced_threads=0 / nr=0 / decimate=1 / interlaced=0 / bluray_compat=0 / constrained_intra=0 / bframes=3 / b_pyramid=2 / b_adapt=2 / b_bias=0 / direct=3 / weightb=1 / open_gop=0 / weightp=2 / keyint=240 / keyint_min=24 / scenecut=40 / intra_refresh=0 / rc_lookahead=50 / rc=2pass / mbtree=1 / bitrate=2300 / ratetol=1.0 / qcomp=0.60 / qpmin=0 / qpmax=81 / qpstep=4 / cplxblur=20.0 / qblur=0.5 / vbv_maxrate=62500 / vbv_bufsize=62500 / nal_hrd=vbr / filler=0 / ip_ratio=1.40 / aq=1:1.00
Default : Yes
Forced : No

Audio
ID : 2
Format : AC-3
Format/Info : Audio Coding 3
Format settings, Endianness : Big
Codec ID : A_AC3
Duration : 1 h 2 min
Bit rate mode : Constant
Bit rate : 384 kb/s
Channel(s) : 6 channels
Channel positions : Front: L C R, Side: L R, LFE
Sampling rate : 48.0 kHz
Frame rate : 31.250 FPS (1536 SPF)
Bit depth : 16 bits
Compression mode : Lossy
Stream size : 172 MiB (14%)
Language : English
Service kind : Complete Main
Default : Yes
Forced : No

Text #1
ID : 3
Format : UTF-8
Codec ID : S_TEXT/UTF8
Codec ID/Info : UTF-8 Plain Text
Duration : 1 h 1 min
Bit rate : 45 b/s
Count of elements : 527
Stream size : 20.4 KiB (0%)
Language : English
Default : No
Forced : No

Text #2
ID : 4
Format : UTF-8
Codec ID : S_TEXT/UTF8
Codec ID/Info : UTF-8 Plain Text
Duration : 1 h 1 min
Bit rate : 49 b/s
Count of elements : 601
Stream size : 22.0 KiB (0%)
Title : SDH
Language : English
Default : No
Forced : No

Menu
00:00:00.000 : en:00:00:00.000
00:08:24.504 : en:00:08:24.504
00:26:20.829 : en:00:26:20.829
00:39:26.322 : en:00:39:26.322
00:43:14.592 : en:00:43:14.592
00:53:48.058 : en:00:53:48.058
01:01:51.708 : en:01:01:51.708





American Horror Story S05E01


American Horror Story S05E01


American Horror Story S05E01


American Horror Story S05E01


American Horror Story S05E01

All episodes