Index
# A B C D E F G H I J K L M N O P Q R S T U V W Y Z
Tags
Language
Tags

Featured TV Shows


American Horror Story S09E04

Posted By: Tavaz
1080p (FullHD) / WEBRip IMDb
American Horror Story S09E04

American Horror Story S09E04
WEBRip | MKV | 1920x1080 | English | H265 @ 2768 kbps | E-AC-3 @ 640 kbps | 41 min 38 s | 1 018 MiB
Subtitles: English
Genre: Drama, Mystery


An anthology horror drama series centering on different characters and locations, including a house with a murderous past, an asylum, a witch coven, a freak show, a hotel, a farmhouse in Roanoke and a cult.

1710cb5ef94c4e6a93ac8302f04d275f.mkv (1018.2 MB)



General
Unique ID : 240720079928669074602422967614367990369 (0xB519004284BA447FA8A188A85E4E0261)
Complete name : ./1710cb5ef94c4e6a93ac8302f04d275f.mkv
Format : Matroska
Format version : Version 2
File size : 1 018 MiB
Duration : 41 min 38 s
Overall bit rate : 3 419 kb/s
Movie name : American.Horror.Story.S09E04.True.Killers.WEBRip.1080p.DD+5.1.H265-d3g
Encoded date : UTC 2019-11-15 02:13:40
Writing application : DVDFab 10.0.9.2
Writing library : libebml v1.3.4 + libmatroska v1.4.5

Video
ID : 1
Format : HEVC
Format/Info : High Efficiency Video Coding
Format profile : Main@L4@Main
Codec ID : V_MPEGH/ISO/HEVC
Duration : 41 min 37 s
Bit rate : 2 769 kb/s
Width : 1 920 pixels
Height : 1 080 pixels
Display aspect ratio : 16:9
Frame rate mode : Constant
Frame rate : 23.976 (24000/1001) FPS
Color space : YUV
Chroma subsampling : 4:2:0
Bit depth : 8 bits
Bits/(Pixel*Frame) : 0.056
Stream size : 824 MiB (81%)
Default : Yes
Forced : No
Color range : Limited
Color primaries : BT.709
Transfer characteristics : BT.709
Matrix coefficients : BT.709

Audio
ID : 2
Format : E-AC-3
Format/Info : Enhanced Audio Coding 3
Format settings, Endianness : Big
Codec ID : A_EAC3
Duration : 41 min 38 s
Bit rate mode : Constant
Bit rate : 640 kb/s
Channel(s) : 6 channels
Channel positions : Front: L C R, Side: L R, LFE
Sampling rate : 48.0 kHz
Frame rate : 187.500 FPS (256 SPF)
Compression mode : Lossy
Stream size : 191 MiB (19%)
Language : English
Service kind : Complete Main
Default : Yes
Forced : No

Text
ID : 4
Format : VobSub
Codec ID : S_VOBSUB
Codec ID/Info : Picture based subtitle format used on DVDs
Duration : 40 min 50 s
Bit rate : 9 142 b/s
Count of elements : 657
Stream size : 2.67 MiB (0%)
Language : English
Default : No
Forced : No

Menu
00:00:00.000 : en:Chapter 1
00:06:09.982 : en:Opening Credits
00:07:19.982 : en:Chapter 3
00:16:31.982 : en:Chapter 4
00:26:27.982 : en:Chapter 5
00:32:46.982 : en:Chapter 6
00:35:15.982 : en:Chapter 7
00:40:51.982 : en:Chapter 8





American Horror Story S09E04


American Horror Story S09E04


American Horror Story S09E04


American Horror Story S09E04


American Horror Story S09E04

All episodes