Index
# A B C D E F G H I J K L M N O P Q R S T U V W Y Z
Tags
Language
Tags

Featured TV Shows


American Horror Story S09E08

Posted By: Tavaz
1080p (FullHD) / WEB-DL IMDb
American Horror Story S09E08

American Horror Story S09E08
WEB-DL | MKV | 1920x1080 | H264 @ 8880 kbps | E-AC-3 @ 640 kbps | 38 min 14 s | 2.60 GiB
Genre: Drama, Mystery


An anthology horror drama series centering on different characters and locations, including a house with a murderous past, an asylum, a witch coven, a freak show, a hotel, a farmhouse in Roanoke and a cult.

91b62b9762104fbe8bd2d7ce18091cf9.mkv (2.6 GB)



General
Unique ID : 65170765636126030639040434505740460414 (0x31076ED2C750894C6DE64F91C6B0217E)
Complete name : ./91b62b9762104fbe8bd2d7ce18091cf9.mkv
Format : Matroska
Format version : Version 4 / Version 2
File size : 2.60 GiB
Duration : 38 min 14 s
Overall bit rate : 9 714 kb/s
Writing application : Lavf57.82.100
Writing library : Lavf57.82.100
ErrorDetectionType : Per level 1

Video
ID : 1
Format : AVC
Format/Info : Advanced Video Codec
Format profile : High@L4
Format settings : CABAC / 4 Ref Frames
Format settings, CABAC : Yes
Format settings, RefFrames : 4 frames
Codec ID : V_MPEG4/ISO/AVC
Duration : 38 min 14 s
Bit rate mode : Constant
Bit rate : 8 880 kb/s
Nominal bit rate : 10 000 kb/s
Width : 1 920 pixels
Height : 1 080 pixels
Display aspect ratio : 16:9
Frame rate mode : Constant
Frame rate : 23.976 (24000/1001) FPS
Color space : YUV
Chroma subsampling : 4:2:0
Bit depth : 8 bits
Scan type : Progressive
Bits/(Pixel*Frame) : 0.179
Stream size : 2.37 GiB (91%)
Default : Yes
Forced : No
Color range : Limited
Color primaries : BT.709
Transfer characteristics : BT.709
Matrix coefficients : BT.709

Audio
ID : 2
Format : E-AC-3
Format/Info : Enhanced Audio Coding 3
Format settings, Endianness : Big
Codec ID : A_EAC3
Duration : 38 min 14 s
Bit rate mode : Constant
Bit rate : 640 kb/s
Channel(s) : 6 channels
Channel positions : Front: L C R, Side: L R, LFE
Sampling rate : 48.0 kHz
Frame rate : 187.500 FPS (256 SPF)
Bit depth : 32 bits
Compression mode : Lossy
Delay relative to video : 30 ms
Stream size : 175 MiB (7%)
Service kind : Complete Main
Default : Yes
Forced : No

Text
ID : 3
Format : ASS
Codec ID : S_TEXT/ASS
Codec ID/Info : Advanced Sub Station Alpha
Duration : 38 min 14 s
Compression mode : Lossless
Writing library : Lavc57.106.101 ssa
Default : No
Forced : No

Menu





American Horror Story S09E08


American Horror Story S09E08


American Horror Story S09E08


American Horror Story S09E08


American Horror Story S09E08

All episodes