Featured TV Shows


American Housewife S04E16

Posted By: Tavaz
1080p (FullHD) / WEBRip IMDb
American Housewife S04E16

American Housewife S04E16
WEBRip | MKV | 1920x1080 | English | H264 @ 10000 kbps | E-AC-3 @ 640 kbps | 21 min 7 s | 1.52 GiB
Subtitles: English
Genre: Comedy


A family comedy narrated by Katie, a strong-willed mother, raising her flawed family in a wealthy town filled with perfect wives and their perfect offspring.

0cef96484b864f39a7e2ee8c0af0c81c.mkv (1.5 GB)



General
Unique ID : 173398530530717716771303423694224920978 (0x8273579C22A1F3B144B648B28D629192)
Complete name : ./0cef96484b864f39a7e2ee8c0af0c81c.mkv
Format : Matroska
Format version : Version 4 / Version 2
File size : 1.52 GiB
Duration : 21 min 7 s
Overall bit rate : 10.3 Mb/s
Movie name : American.Housewife.S04E16.1080p.WEB.H264-iNSiDiOUS
Encoded date : UTC 2020-04-01 23:05:15
Writing application : mkvmerge v37.0.0 ('Leave It') 64-bit
Writing library : libebml v1.3.9 + libmatroska v1.5.2

Video
ID : 1
Format : AVC
Format/Info : Advanced Video Codec
Format profile : High@L4
Format settings : CABAC / 4 Ref Frames
Format settings, CABAC : Yes
Format settings, RefFrames : 4 frames
Codec ID : V_MPEG4/ISO/AVC
Duration : 21 min 7 s
Bit rate mode : Constant
Bit rate : 10 000 kb/s
Width : 1 920 pixels
Height : 1 080 pixels
Display aspect ratio : 16:9
Frame rate mode : Constant
Frame rate : 23.976 (24000/1001) FPS
Color space : YUV
Chroma subsampling : 4:2:0
Bit depth : 8 bits
Scan type : Progressive
Bits/(Pixel*Frame) : 0.201
Stream size : 1.43 GiB (94%)
Default : Yes
Forced : No
Color range : Limited
Color primaries : BT.709
Transfer characteristics : BT.709
Matrix coefficients : BT.709

Audio
ID : 2
Format : E-AC-3
Format/Info : Enhanced Audio Coding 3
Format settings, Endianness : Big
Codec ID : A_EAC3
Duration : 21 min 7 s
Bit rate mode : Constant
Bit rate : 640 kb/s
Channel(s) : 6 channels
Channel positions : Front: L C R, Side: L R, LFE
Sampling rate : 48.0 kHz
Frame rate : 187.500 FPS (256 SPF)
Compression mode : Lossy
Stream size : 96.7 MiB (6%)
Language : English
Service kind : Complete Main
Default : No
Forced : No

Text
ID : 3
Format : UTF-8
Codec ID : S_TEXT/UTF8
Codec ID/Info : UTF-8 Plain Text
Duration : 20 min 56 s
Bit rate : 118 b/s
Count of elements : 601
Stream size : 18.1 KiB (0%)
Language : English
Default : No
Forced : No





American Housewife S04E16


American Housewife S04E16


American Housewife S04E16


American Housewife S04E16


American Housewife S04E16

All episodes