Index
# A B C D E F G H I J K L M N O P Q R S T U V W Y Z
Tags
Language
Tags

Featured TV Shows


Amphibia S03E31

Posted By: Tavaz
1080p (FullHD) / WEBRip IMDb
Amphibia S03E31

Amphibia S03E31
WEBRip | MKV | 1920x1080 | English | H264 @ 4380 kbps | AAC @ 63 kbps | 29 min 21 s | 934 MiB
Subtitles: English
Genre: Animation, Comedy


The adventures of 13-year-old, self-centered Anne Boonchuy who is magically transported to the fictitious world of Amphibia, a rural marshland full of frog-people. With the help of an excitable young frog named Sprig, Anne will transform into a hero and discover the first true friendship of her life.

c2c36978b8ba47a79b0ae196681e5009.mkv (933.9 MB)



General
Unique ID : 175425347070733483502586721608325183950 (0x83F9B1616C40CD4E56A1C5EB293CB9CE)
Complete name : ./c2c36978b8ba47a79b0ae196681e5009.mkv
Format : Matroska
Format version : Version 4 / Version 2
File size : 934 MiB
Duration : 29 min 21 s
Overall bit rate : 4 446 kb/s
Encoded date : UTC 2022-05-15 11:41:46
Writing application : mkvmerge v67.0.0 ('Under Stars') 64-bit
Writing library : libebml v1.4.2 + libmatroska v1.6.4

Video
ID : 1
Format : AVC
Format/Info : Advanced Video Codec
Format profile : High@L4
Format settings : CABAC / 4 Ref Frames
Format settings, CABAC : Yes
Format settings, RefFrames : 4 frames
Codec ID : V_MPEG4/ISO/AVC
Duration : 29 min 21 s
Bit rate : 4 381 kb/s
Width : 1 920 pixels
Height : 1 080 pixels
Display aspect ratio : 16:9
Frame rate mode : Constant
Frame rate : 23.976 (24000/1001) FPS
Color space : YUV
Chroma subsampling : 4:2:0
Bit depth : 8 bits
Scan type : Progressive
Bits/(Pixel*Frame) : 0.088
Stream size : 920 MiB (99%)
Default : Yes
Forced : No

Audio
ID : 2
Format : AAC
Format/Info : Advanced Audio Codec
Format profile : HE-AAC / LC
Format settings : Explicit
Codec ID : A_AAC-2
Duration : 29 min 21 s
Bit rate : 64.0 kb/s
Channel(s) : 2 channels
Channel positions : Front: L R
Sampling rate : 48.0 kHz / 24.0 kHz
Frame rate : 23.438 FPS (1024 SPF)
Compression mode : Lossy
Stream size : 13.4 MiB (1%)
Language : English
Default : Yes
Forced : No

Text
ID : 3
Format : UTF-8
Codec ID : S_TEXT/UTF8
Codec ID/Info : UTF-8 Plain Text
Duration : 27 min 0 s
Bit rate : 74 b/s
Count of elements : 419
Stream size : 14.8 KiB (0%)
Language : English
Default : No
Forced : No





Amphibia S03E31


Amphibia S03E31


Amphibia S03E31


Amphibia S03E31


Amphibia S03E31

All episodes