Featured TV Shows


Andi Mack S02E08

Posted By: Tavaz
1080p (FullHD) / WEB-DL IMDb
Andi Mack S02E08

Andi Mack S02E08
WEB-DL | MKV | 1920x1080 | English | H264 @ 11291 kbps | E-AC-3 @ 640 kbps | 23 min 41 s | 1.97 GiB
Subtitles: English
Genre: Comedy, Family

Andi is contemplative and artistic and sheltered by overprotective parents. But on the eve of her 13th birthday, Andi's free-spirited older sister Bex returns home with a revelation that changes everything and sends Andi on an uncharted course of self-discovery.

6d830a06b9604535b225bce63faafac7.mkv (2.0 GB)



General
Unique ID : 300190217858064370410822927332056126070 (0xE1D6886FF7D483648C8C0F0850925276)
Complete name : ./6d830a06b9604535b225bce63faafac7.mkv
Format : Matroska
Format version : Version 4 / Version 2
File size : 1.97 GiB
Duration : 23 min 41 s
Overall bit rate mode : Variable
Overall bit rate : 11.9 Mb/s
Encoded date : UTC 2018-01-21 01:50:48
Writing application : mkvmerge v20.0.0 ('I Am The Sun') 64-bit
Writing library : libebml v1.3.5 + libmatroska v1.4.8

Video
ID : 1
Format : AVC
Format/Info : Advanced Video Codec
Format profile : High@L4
Format settings : CABAC / 4 Ref Frames
Format settings, CABAC : Yes
Format settings, RefFrames : 4 frames
Codec ID : V_MPEG4/ISO/AVC
Duration : 23 min 41 s
Bit rate mode : Variable
Bit rate : 11.3 Mb/s
Maximum bit rate : 15.0 Mb/s
Width : 1 920 pixels
Height : 1 080 pixels
Display aspect ratio : 16:9
Frame rate mode : Constant
Frame rate : 23.976 (24000/1001) FPS
Color space : YUV
Chroma subsampling : 4:2:0
Bit depth : 8 bits
Scan type : Progressive
Bits/(Pixel*Frame) : 0.227
Stream size : 1.87 GiB (95%)
Language : English
Default : Yes
Forced : No
Color range : Limited
Color primaries : BT.709
Transfer characteristics : BT.709
Matrix coefficients : BT.709

Audio
ID : 2
Format : E-AC-3
Format/Info : Enhanced Audio Coding 3
Format settings, Endianness : Big
Codec ID : A_EAC3
Duration : 23 min 41 s
Bit rate mode : Constant
Bit rate : 640 kb/s
Channel(s) : 6 channels
Channel positions : Front: L C R, Side: L R, LFE
Sampling rate : 48.0 kHz
Frame rate : 187.500 FPS (256 SPF)
Compression mode : Lossy
Stream size : 108 MiB (5%)
Language : English
Service kind : Complete Main
Default : Yes
Forced : No

Text
ID : 3
Format : UTF-8
Codec ID : S_TEXT/UTF8
Codec ID/Info : UTF-8 Plain Text
Duration : 23 min 39 s
Bit rate : 80 b/s
Count of elements : 491
Stream size : 14.0 KiB (0%)
Language : English
Default : No
Forced : No





Andi Mack S02E08


Andi Mack S02E08


Andi Mack S02E08


Andi Mack S02E08


Andi Mack S02E08

All episodes