Index
# A B C D E F G H I J K L M N O P Q R S T U V W X Y Z
Tags
Language
Tags
April 2024
Su Mo Tu We Th Fr Sa
31 1 2 3 4 5 6
7 8 9 10 11 12 13
14 15 16 17 18 19 20
21 22 23 24 25 26 27
28 29 30 1 2 3 4

Featured TV Shows


Star Wars: Andor S01E00

Posted By: Tavaz
1080p (FullHD) / WEBRip IMDb
Star Wars: Andor S01E00

Star Wars: Andor S01E00
WEBRip | MKV | 1920x1080 | English | H264 @ 6883 kbps | E-AC-3 @ 256 kbps | 9 min 31 s | 486 MiB
Subtitles: 中文, Français, Deutsch, Suomi, Español, Magyar, Polski, Italiano, Slovenčina, Ελληνικά, Türkçe, 日本語, Svenska, Dansk, English, Nederlands, Română, 한국어, Português, Čeština


The tale of the burgeoning rebellion against the Empire and how people and planets became involved. In an era filled with danger, deception and intrigue, Cassian Andor embarks on the path that is destined to turn him into a rebel hero.

e861248d9a924e8790bf173e99290c27.mkv (486.5 MB)



General
Unique ID : 6222570445475285183119487380460800348 (0x4AE6C68DEE69CD980C32040B71E095C)
Complete name : ./e861248d9a924e8790bf173e99290c27.mkv
Format : Matroska
Format version : Version 4 / Version 2
File size : 486 MiB
Duration : 9 min 31 s
Overall bit rate mode : Variable
Overall bit rate : 7 146 kb/s
Writing application : mkvmerge v67.0.0 ('Under Stars') 64-bit
Writing library : libebml v1.4.2 + libmatroska v1.6.4

Video
ID : 1
Format : AVC
Format/Info : Advanced Video Codec
Format profile : High@L4
Format settings : CABAC / 4 Ref Frames
Format settings, CABAC : Yes
Format settings, RefFrames : 4 frames
Codec ID : V_MPEG4/ISO/AVC
Duration : 9 min 31 s
Bit rate mode : Variable
Bit rate : 6 883 kb/s
Maximum bit rate : 12.7 Mb/s
Width : 1 920 pixels
Height : 1 080 pixels
Display aspect ratio : 16:9
Frame rate mode : Constant
Frame rate : 23.976 (24000/1001) FPS
Color space : YUV
Chroma subsampling : 4:2:0
Bit depth : 8 bits
Scan type : Progressive
Bits/(Pixel*Frame) : 0.138
Stream size : 469 MiB (96%)
Language : English
Default : Yes
Forced : No
Color range : Limited
Color primaries : BT.709
Transfer characteristics : BT.709
Matrix coefficients : BT.709

Audio
ID : 2
Format : E-AC-3
Format/Info : Enhanced Audio Coding 3
Format settings, Endianness : Big
Codec ID : A_EAC3
Duration : 9 min 31 s
Bit rate mode : Constant
Bit rate : 256 kb/s
Channel(s) : 6 channels
Channel positions : Front: L C R, Side: L R, LFE
Sampling rate : 48.0 kHz
Frame rate : 187.500 FPS (256 SPF)
Compression mode : Lossy
Stream size : 17.4 MiB (4%)
Language : English
Service kind : Complete Main
Default : Yes
Forced : No

Text #1
ID : 3
Format : UTF-8
Codec ID : S_TEXT/UTF8
Codec ID/Info : UTF-8 Plain Text
Duration : 9 min 23 s
Bit rate : 98 b/s
Count of elements : 192
Stream size : 6.77 KiB (0%)
Title : English (SDH)
Language : English
Default : No
Forced : No

Text #2
ID : 4
Format : UTF-8
Codec ID : S_TEXT/UTF8
Codec ID/Info : UTF-8 Plain Text
Duration : 9 min 25 s
Bit rate : 80 b/s
Count of elements : 166
Stream size : 5.58 KiB (0%)
Title : Čeština
Language : Czech
Default : No
Forced : No

Text #3
ID : 5
Format : UTF-8
Codec ID : S_TEXT/UTF8
Codec ID/Info : UTF-8 Plain Text
Duration : 9 min 26 s
Bit rate : 84 b/s
Count of elements : 120
Stream size : 5.82 KiB (0%)
Title : Dansk
Language : Danish
Default : No
Forced : No

Text #4
ID : 6
Format : UTF-8
Codec ID : S_TEXT/UTF8
Codec ID/Info : UTF-8 Plain Text
Duration : 9 min 20 s
Bit rate : 86 b/s
Count of elements : 164
Stream size : 5.93 KiB (0%)
Title : Deutsch
Language : German
Default : No
Forced : No

Text #5
ID : 7
Format : UTF-8
Codec ID : S_TEXT/UTF8
Codec ID/Info : UTF-8 Plain Text
Duration : 9 min 25 s
Bit rate : 147 b/s
Count of elements : 168
Stream size : 10.2 KiB (0%)
Title : Greek
Language : Greek
Default : No
Forced : No

Text #6
ID : 8
Format : UTF-8
Codec ID : S_TEXT/UTF8
Codec ID/Info : UTF-8 Plain Text
Duration : 9 min 25 s
Bit rate : 87 b/s
Count of elements : 168
Stream size : 6.02 KiB (0%)
Title : Español
Language : Spanish
Default : No
Forced : No

Text #7
ID : 9
Format : UTF-8
Codec ID : S_TEXT/UTF8
Codec ID/Info : UTF-8 Plain Text
Duration : 9 min 25 s
Bit rate : 83 b/s
Count of elements : 169
Stream size : 5.74 KiB (0%)
Title : Español (Latinoamericano)
Language : Spanish
Default : No
Forced : No

Text #8
ID : 10
Format : UTF-8
Codec ID : S_TEXT/UTF8
Codec ID/Info : UTF-8 Plain Text
Duration : 9 min 25 s
Bit rate : 85 b/s
Count of elements : 168
Stream size : 5.91 KiB (0%)
Title : Suomi
Language : Finnish
Default : No
Forced : No

Text #9
ID : 11
Format : UTF-8
Codec ID : S_TEXT/UTF8
Codec ID/Info : UTF-8 Plain Text
Duration : 9 min 25 s
Bit rate : 79 b/s
Count of elements : 167
Stream size : 5.47 KiB (0%)
Title : Français
Language : French
Default : No
Forced : No

Text #10
ID : 12
Format : UTF-8
Codec ID : S_TEXT/UTF8
Codec ID/Info : UTF-8 Plain Text
Duration : 9 min 25 s
Bit rate : 82 b/s
Count of elements : 167
Stream size : 5.71 KiB (0%)
Title : Français (Canadien)
Language : French
Default : No
Forced : No

Text #11
ID : 13
Format : UTF-8
Codec ID : S_TEXT/UTF8
Codec ID/Info : UTF-8 Plain Text
Duration : 9 min 25 s
Bit rate : 87 b/s
Count of elements : 169
Stream size : 6.02 KiB (0%)
Title : Magyar
Language : Hungarian
Default : No
Forced : No

Text #12
ID : 14
Format : UTF-8
Codec ID : S_TEXT/UTF8
Codec ID/Info : UTF-8 Plain Text
Duration : 9 min 25 s
Bit rate : 85 b/s
Count of elements : 167
Stream size : 5.93 KiB (0%)
Title : Italiano
Language : Italian
Default : No
Forced : No

Text #13
ID : 15
Format : UTF-8
Codec ID : S_TEXT/UTF8
Codec ID/Info : UTF-8 Plain Text
Duration : 9 min 25 s
Bit rate : 74 b/s
Count of elements : 155
Stream size : 5.16 KiB (0%)
Title : Japanese
Language : Japanese
Default : No
Forced : No

Text #14
ID : 16
Format : UTF-8
Codec ID : S_TEXT/UTF8
Codec ID/Info : UTF-8 Plain Text
Duration : 9 min 27 s
Bit rate : 89 b/s
Count of elements : 172
Stream size : 6.17 KiB (0%)
Title : Korean
Language : Korean
Default : No
Forced : No

Text #15
ID : 17
Format : UTF-8
Codec ID : S_TEXT/UTF8
Codec ID/Info : UTF-8 Plain Text
Duration : 9 min 21 s
Bit rate : 78 b/s
Count of elements : 143
Stream size : 5.38 KiB (0%)
Title : Nederlands
Language : Dutch
Default : No
Forced : No

Text #16
ID : 18
Format : UTF-8
Codec ID : S_TEXT/UTF8
Codec ID/Info : UTF-8 Plain Text
Duration : 9 min 25 s
Bit rate : 77 b/s
Count of elements : 168
Stream size : 5.37 KiB (0%)
Title : Norsk
Language : Norwegian
Default : No
Forced : No

Text #17
ID : 19
Format : UTF-8
Codec ID : S_TEXT/UTF8
Codec ID/Info : UTF-8 Plain Text
Duration : 9 min 25 s
Bit rate : 83 b/s
Count of elements : 167
Stream size : 5.73 KiB (0%)
Title : Polski
Language : Polish
Default : No
Forced : No

Text #18
ID : 20
Format : UTF-8
Codec ID : S_TEXT/UTF8
Codec ID/Info : UTF-8 Plain Text
Duration : 9 min 25 s
Bit rate : 90 b/s
Count of elements : 168
Stream size : 6.23 KiB (0%)
Title : Português (Brasil)
Language : Portuguese
Default : No
Forced : No

Text #19
ID : 21
Format : UTF-8
Codec ID : S_TEXT/UTF8
Codec ID/Info : UTF-8 Plain Text
Duration : 9 min 25 s
Bit rate : 82 b/s
Count of elements : 169
Stream size : 5.70 KiB (0%)
Title : Português
Language : Portuguese
Default : No
Forced : No

Text #20
ID : 22
Format : UTF-8
Codec ID : S_TEXT/UTF8
Codec ID/Info : UTF-8 Plain Text
Duration : 9 min 27 s
Bit rate : 90 b/s
Count of elements : 172
Stream size : 6.26 KiB (0%)
Title : Română
Language : Romanian
Default : No
Forced : No

Text #21
ID : 23
Format : UTF-8
Codec ID : S_TEXT/UTF8
Codec ID/Info : UTF-8 Plain Text
Duration : 9 min 25 s
Bit rate : 82 b/s
Count of elements : 168
Stream size : 5.70 KiB (0%)
Title : Slovenčina
Language : Slovak
Default : No
Forced : No

Text #22
ID : 24
Format : UTF-8
Codec ID : S_TEXT/UTF8
Codec ID/Info : UTF-8 Plain Text
Duration : 9 min 26 s
Bit rate : 75 b/s
Count of elements : 112
Stream size : 5.22 KiB (0%)
Title : Svenska
Language : Swedish
Default : No
Forced : No

Text #23
ID : 25
Format : UTF-8
Codec ID : S_TEXT/UTF8
Codec ID/Info : UTF-8 Plain Text
Duration : 9 min 25 s
Bit rate : 87 b/s
Count of elements : 169
Stream size : 6.06 KiB (0%)
Title : Türkçe
Language : Turkish
Default : No
Forced : No

Text #24
ID : 26
Format : UTF-8
Codec ID : S_TEXT/UTF8
Codec ID/Info : UTF-8 Plain Text
Duration : 9 min 27 s
Bit rate : 69 b/s
Count of elements : 172
Stream size : 4.82 KiB (0%)
Title : Chinese (Hong Kong)
Language : Chinese
Default : No
Forced : No

Text #25
ID : 27
Format : UTF-8
Codec ID : S_TEXT/UTF8
Codec ID/Info : UTF-8 Plain Text
Duration : 9 min 27 s
Bit rate : 63 b/s
Count of elements : 172
Stream size : 4.42 KiB (0%)
Title : Chinese (Traditional)
Language : Chinese
Default : No
Forced : No

Text #26
ID : 28
Format : UTF-8
Codec ID : S_TEXT/UTF8
Codec ID/Info : UTF-8 Plain Text
Duration : 9 min 27 s
Bit rate : 74 b/s
Count of elements : 171
Stream size : 5.17 KiB (0%)
Title : Chinese (Simplified)
Language : Chinese
Default : No
Forced : No





Star Wars: Andor S01E00


Star Wars: Andor S01E00


Star Wars: Andor S01E00


Star Wars: Andor S01E00


Star Wars: Andor S01E00

All episodes