Index
# A B C D E F G H I J K L M N O P Q R S T U V W X Y Z
Tags
Language
Tags
June 2024
Su Mo Tu We Th Fr Sa
26 27 28 29 30 31 1
2 3 4 5 6 7 8
9 10 11 12 13 14 15
16 17 18 19 20 21 22
23 24 25 26 27 28 29
30 1 2 3 4 5 6

Featured TV Shows


Angry Boys S01E11

Posted By: Tavaz
720p (HD) / BDRip IMDb
Angry Boys S01E11

Angry Boys S01E11
BDRip | MKV | 1280x720 | English | H264 @ 4829 kbps | AC-3 @ 640.0 kbps | 27 min 44 s | 1.06 GiB
Subtitles: English
Genre: Drama, Comedy


Angry Boys is an Australian television mockumentary series written by and starring Chris Lilley. Continuing the mockumentary style of his previous series, the show explores the issues faced by young males in the 21st century – their influences, their pressures, their dreams and ambitions. In Angry Boys, Lilley plays multiple characters: S.mouse, an American rapper; Jen, a manipulative Japanese mother; Blake Oakfield, a champion surfer; Ruth "Gran" Sims, a guard at a juvenile detention facility; and her grandchildren, South Australian twins Daniel and Nathan Sims.

The series is a co-production between the Australian Broadcasting Corporation and US cable channel HBO, with a pre-sale to BBC Three in the United Kingdom. Filmed in Melbourne, Los Angeles and Tokyo, Angry Boys premièred on 11 May 2011 at 9:00 pm on ABC1.

Angry.Boys.S01E11.Episode.11.Bluray-720p.mkv (1.1 GB)



General
Unique ID : 240162547511217123786553986751820974643 (0xB4AD9FCA1400314B9C1C5F893977CA33)
Complete name : ./Angry.Boys.S01E11.Episode.11.Bluray-720p.mkv
Format : Matroska
Format version : Version 4
File size : 1.06 GiB
Duration : 27 min 44 s
Overall bit rate : 5 472 kb/s
Encoded date : UTC 2017-10-15 17:47:09
Writing application : mkvmerge v17.0.0 ('Be Ur Friend') 64-bit
Writing library : libebml v1.3.5 + libmatroska v1.4.8

Video
ID : 1
Format : AVC
Format/Info : Advanced Video Codec
Format profile : High@L4.1
Format settings : CABAC / 9 Ref Frames
Format settings, CABAC : Yes
Format settings, Reference frames : 9 frames
Codec ID : V_MPEG4/ISO/AVC
Duration : 27 min 44 s
Bit rate : 4 829 kb/s
Width : 1 280 pixels
Height : 720 pixels
Display aspect ratio : 16:9
Frame rate mode : Constant
Frame rate : 29.970 (30000/1001) FPS
Color space : YUV
Chroma subsampling : 4:2:0
Bit depth : 8 bits
Scan type : Progressive
Bits/(Pixel*Frame) : 0.175
Stream size : 958 MiB (88%)
Writing library : x264 core 148 r2705.16 d50a22e VietHD_Custom_64
Encoding settings : cabac=1 / ref=9 / deblock=1:-3:-3 / analyse=0x3:0x133 / me=umh / subme=10 / psy=1 / fade_compensate=0.00 / psy_rd=1.10:0.00 / mixed_ref=1 / me_range=24 / chroma_me=1 / trellis=2 / 8x8dct=1 / cqm=0 / deadzone=21,11 / fast_pskip=0 / chroma_qp_offset=-2 / threads=56 / lookahead_threads=5 / sliced_threads=0 / nr=0 / decimate=0 / interlaced=0 / bluray_compat=0 / constrained_intra=0 / fgo=0 / bframes=7 / b_pyramid=2 / b_adapt=2 / b_bias=0 / direct=3 / weightb=1 / open_gop=0 / weightp=2 / keyint=250 / keyint_min=25 / scenecut=40 / intra_refresh=0 / rc_lookahead=60 / rc=crf / mbtree=0 / crf=18.0000 / qcomp=0.60 / qpmin=0:0:0 / qpmax=69:69:69 / qpstep=4 / vbv_maxrate=62500 / vbv_bufsize=78125 / crf_max=0.0 / nal_hrd=none / filler=0 / ip_ratio=1.30 / pb_ratio=1.20 / aq=3:0.65 / aq-sensitivity=10.00 / aq-factor=1.00:1.00:1.00 / aq2=0 / aq3=0
Language : English
Default : Yes
Forced : No
Color range : Limited
Matrix coefficients : BT.709

Audio
ID : 2
Format : AC-3
Format/Info : Audio Coding 3
Commercial name : Dolby Digital
Codec ID : A_AC3
Duration : 27 min 43 s
Bit rate mode : Constant
Bit rate : 640 kb/s
Channel(s) : 6 channels
Channel layout : L R C LFE Ls Rs
Sampling rate : 48.0 kHz
Frame rate : 31.250 FPS (1536 SPF)
Compression mode : Lossy
Stream size : 127 MiB (12%)
Language : English
Service kind : Complete Main
Default : Yes
Forced : No

Text
ID : 3
Format : UTF-8
Codec ID : S_TEXT/UTF8
Codec ID/Info : UTF-8 Plain Text
Duration : 26 min 42 s
Bit rate : 107 b/s
Frame rate : 0.341 FPS
Count of elements : 547
Stream size : 21.0 KiB (0%)
Language : English
Default : No
Forced : No

Menu
00:00:00.000 : en:00:00:00.000
00:00:45.612 : en:00:00:45.612
00:09:28.535 : en:00:09:28.535
00:16:58.284 : en:00:16:58.284
00:26:29.822 : en:00:26:29.822





Angry Boys S01E11


Angry Boys S01E11


Angry Boys S01E11


Angry Boys S01E11


Angry Boys S01E11

All episodes