Please register here if you want to download anything!

If domain in your address bar is different from the list below
PLEASE LEAVE THAT SITE IMMEDIATELY
❗IT'S A DANGEROUS FAKE❗



Spicy Magazines for Men! ;-)

Featured TV Shows


Animal Kingdom S04E12

Posted By: Tavaz
1080p (FullHD) / WEB-DL IMDb
Animal Kingdom S04E12

Animal Kingdom S04E12
WEB-DL | MKV | 1920x1080 | English | H264 @ 9096 kbps | E-AC-3 @ 640 kbps | 46 min 8 s | 3.14 GiB
Subtitles: English
Genre: Crime, Drama


The series centers on 17-year-old Joshua "J" Cody, who moves in with his freewheeling relatives in their Southern California beach town after his mother dies of a heroin overdose. Headed by boot-tough matriarch Janine "Smurf" Cody and her right-hand Baz, who runs the business and calls the shots, the clan also consists of Pope, the oldest and most dangerous of the Cody boys; Craig, the tough and fearless middle son; and Deran, the troubled, suspicious "baby" of the family.

b1692a20ff85420cba5aa41a2eb47087.mkv (3.1 GB)



General
Unique ID : 79683577126412351521827848567469652010 (0x3BF27FAC87F23195008754D043BC382A)
Complete name : ./b1692a20ff85420cba5aa41a2eb47087.mkv
Format : Matroska
Format version : Version 4 / Version 2
File size : 3.14 GiB
Duration : 46 min 8 s
Overall bit rate : 9 738 kb/s
Encoded date : UTC 2019-08-14 15:25:10
Writing application : mkvmerge v19.0.0 ('Brave Captain') 64-bit
Writing library : libebml v1.3.5 + libmatroska v1.4.8

Video
ID : 1
Format : AVC
Format/Info : Advanced Video Codec
Format profile : High@L4
Format settings : CABAC / 4 Ref Frames
Format settings, CABAC : Yes
Format settings, RefFrames : 4 frames
Codec ID : V_MPEG4/ISO/AVC
Duration : 46 min 8 s
Bit rate mode : Constant
Bit rate : 9 096 kb/s
Nominal bit rate : 10 000 kb/s
Width : 1 920 pixels
Height : 1 080 pixels
Display aspect ratio : 16:9
Frame rate mode : Constant
Frame rate : 23.976 (24000/1001) FPS
Color space : YUV
Chroma subsampling : 4:2:0
Bit depth : 8 bits
Scan type : Progressive
Bits/(Pixel*Frame) : 0.183
Stream size : 2.93 GiB (93%)
Default : Yes
Forced : No
Color range : Limited
Color primaries : BT.709
Transfer characteristics : BT.709
Matrix coefficients : BT.709

Audio
ID : 2
Format : E-AC-3
Format/Info : Enhanced Audio Coding 3
Format settings, Endianness : Big
Codec ID : A_EAC3
Duration : 46 min 8 s
Bit rate mode : Constant
Bit rate : 640 kb/s
Channel(s) : 6 channels
Channel positions : Front: L C R, Side: L R, LFE
Sampling rate : 48.0 kHz
Frame rate : 187.500 FPS (256 SPF)
Compression mode : Lossy
Stream size : 211 MiB (7%)
Language : English
Service kind : Complete Main
Default : Yes
Forced : No

Text
ID : 3
Format : UTF-8
Codec ID : S_TEXT/UTF8
Codec ID/Info : UTF-8 Plain Text
Duration : 46 min 0 s
Bit rate : 39 b/s
Count of elements : 684
Stream size : 13.3 KiB (0%)
Title : SDH
Language : English
Default : No
Forced : No





Animal Kingdom S04E12


Animal Kingdom S04E12


Animal Kingdom S04E12


Animal Kingdom S04E12


Animal Kingdom S04E12

All episodes