Featured TV Shows


Animaniacs S01E01

Posted By: MegoNecia
1080p (FullHD) / WEBRip IMDb
Animaniacs S01E01

Animaniacs S01E01
WEBRip | MKV | 1920x1080 | English | H264 @ 5813 kbps | E-AC-3 @ 256 kbps | 24 min 29 s | 1.04 GiB
Subtitles: Español, English
Genre: Animation, Comedy

The Warner siblings, Yakko and Wakko, and Dot, have a great time wreaking havoc and mayhem in the lives of everyone they meet. After returning to their beloved home, the Warner Bros. Water Tower, the Animaniacs waste no time in causing chaos and comic confusion as they run loose through the studio and beyond, turning the world into their personal playground. Joining Yakko, Wakko and Dot, fan-favorite characters Pinky and the Brain will also return to continue their quest for world domination.

169b7e48402d0f8a2d9d36808aecd645.mkv (1.0 GB)



General
Unique ID : 203175857645270806212920655279268544119 (0x98DA3F2FB299DB45B6DB4BA561F3BE77)
Complete name : ./169b7e48402d0f8a2d9d36808aecd645.mkv
Format : Matroska
Format version : Version 4 / Version 2
File size : 1.04 GiB
Duration : 24 min 29 s
Overall bit rate : 6 071 kb/s
Writing application : mkvmerge v51.0.0 ('I Wish') 64-bit
Writing library : libebml v1.4.0 + libmatroska v1.6.2

Video
ID : 1
Format : AVC
Format/Info : Advanced Video Codec
Format profile : High@L4
Format settings : CABAC / 4 Ref Frames
Format settings, CABAC : Yes
Format settings, RefFrames : 4 frames
Codec ID : V_MPEG4/ISO/AVC
Duration : 24 min 29 s
Bit rate : 5 813 kb/s
Width : 1 920 pixels
Height : 1 080 pixels
Display aspect ratio : 16:9
Frame rate mode : Constant
Frame rate : 23.976 (24000/1001) FPS
Color space : YUV
Chroma subsampling : 4:2:0
Bit depth : 8 bits
Scan type : Progressive
Bits/(Pixel*Frame) : 0.117
Stream size : 1 019 MiB (96%)
Language : English
Default : Yes
Forced : No

Audio
ID : 2
Format : E-AC-3
Format/Info : Enhanced Audio Coding 3
Format settings, Endianness : Big
Codec ID : A_EAC3
Duration : 24 min 29 s
Bit rate mode : Constant
Bit rate : 256 kb/s
Channel(s) : 6 channels
Channel positions : Front: L C R, Side: L R, LFE
Sampling rate : 48.0 kHz
Frame rate : 187.500 FPS (256 SPF)
Compression mode : Lossy
Stream size : 44.9 MiB (4%)
Language : English
Service kind : Complete Main
Default : Yes
Forced : No

Text #1
ID : 3
Format : UTF-8
Codec ID : S_TEXT/UTF8
Codec ID/Info : UTF-8 Plain Text
Duration : 23 min 18 s
Bit rate : 112 b/s
Count of elements : 564
Stream size : 19.1 KiB (0%)
Title : English
Language : English
Default : No
Forced : No

Text #2
ID : 4
Format : UTF-8
Codec ID : S_TEXT/UTF8
Codec ID/Info : UTF-8 Plain Text
Duration : 23 min 29 s
Bit rate : 123 b/s
Count of elements : 571
Stream size : 21.2 KiB (0%)
Title : Spanish; Castilian
Language : Spanish
Default : No
Forced : No





Animaniacs S01E01


Animaniacs S01E01


Animaniacs S01E01


Animaniacs S01E01


Animaniacs S01E01

All episodes