Index
# A B C D E F G H I J K L M N O P Q R S T U V W Y Z
Tags
Language
Tags

Featured TV Shows


Chiamatemi Anna S03E02

Posted By: Tavaz
720p (HD) / WEB-DL IMDb
Chiamatemi Anna S03E02

Chiamatemi Anna S03E02
WEB-DL | MKV | 1280x720 | English | H264 @ 4040 kbps | AC-3 @ 384 kbps | 44 min 8 s | 1.36 GiB
Subtitles: English
Genre: Dramma, Famiglia


Dopo aver trascorso la propria infanzia in diversi orfanotrofi, la giovane Anna viene mandata per errore a vivere con gli anziani fratelli Marilla e Matthew Cuthbert. Dopo un'iniziale diffidenza nei confronti di Anna, i due fratelli cominceranno a conoscerla meglio, e la bambina cambierà per sempre le loro vite. Anna diventerá la migliore amica di Diana Barry

82dfec48c676451799c06e7f5627cc36.mkv (1.4 GB)



General
Unique ID : 85493583512468078896476396120581130911 (0x4051771AE23CC5D8BC5FF6172A5CCA9F)
Complete name : ./82dfec48c676451799c06e7f5627cc36.mkv
Format : Matroska
Format version : Version 4 / Version 2
File size : 1.36 GiB
Duration : 44 min 8 s
Overall bit rate : 4 426 kb/s
Encoded date : UTC 2019-09-30 10:51:16
Writing application : mkvmerge v37.0.0 ('Leave It') 64-bit
Writing library : libebml v1.3.9 + libmatroska v1.5.2

Video
ID : 1
Format : AVC
Format/Info : Advanced Video Codec
Format profile : High@L3.1
Format settings : 2 Ref Frames
Format settings, CABAC : No
Format settings, RefFrames : 2 frames
Codec ID : V_MPEG4/ISO/AVC
Duration : 44 min 8 s
Bit rate : 4 041 kb/s
Width : 1 280 pixels
Height : 720 pixels
Display aspect ratio : 16:9
Frame rate mode : Constant
Frame rate : 23.976 (23976/1000) FPS
Color space : YUV
Chroma subsampling : 4:2:0
Bit depth : 8 bits
Scan type : Progressive
Bits/(Pixel*Frame) : 0.183
Stream size : 1.25 GiB (91%)
Default : Yes
Forced : No
Color range : Limited
Color primaries : BT.709
Transfer characteristics : BT.709
Matrix coefficients : BT.709

Audio
ID : 2
Format : AC-3
Format/Info : Audio Coding 3
Format settings, Endianness : Big
Codec ID : A_AC3
Duration : 44 min 8 s
Bit rate mode : Constant
Bit rate : 384 kb/s
Channel(s) : 6 channels
Channel positions : Front: L C R, Side: L R, LFE
Sampling rate : 48.0 kHz
Frame rate : 31.250 FPS (1536 SPF)
Bit depth : 16 bits
Compression mode : Lossy
Delay relative to video : -42 ms
Stream size : 121 MiB (9%)
Language : English
Service kind : Complete Main
Default : Yes
Forced : No

Text
ID : 3
Format : UTF-8
Codec ID : S_TEXT/UTF8
Codec ID/Info : UTF-8 Plain Text
Duration : 44 min 3 s
Bit rate : 70 b/s
Count of elements : 619
Stream size : 22.9 KiB (0%)
Title : SDH
Language : English
Default : No
Forced : No





Chiamatemi Anna S03E02


Chiamatemi Anna S03E02


Chiamatemi Anna S03E02


Chiamatemi Anna S03E02


Chiamatemi Anna S03E02

All episodes