Index
# A B C D E F G H I J K L M N O P Q R S T U V W Y Z
Tags
Language
Tags

Featured TV Shows


Chiamatemi Anna S03E06

Posted By: Tavaz
1080p (FullHD) / WEB-DL IMDb
Chiamatemi Anna S03E06

Chiamatemi Anna S03E06
WEB-DL | MKV | 1920x1080 | English | H264 @ 5128 kbps | AC-3 @ 384 kbps | 44 min 8 s | 1.70 GiB
Subtitles: English
Genre: Dramma, Famiglia


Dopo aver trascorso la propria infanzia in diversi orfanotrofi, la giovane Anna viene mandata per errore a vivere con gli anziani fratelli Marilla e Matthew Cuthbert. Dopo un'iniziale diffidenza nei confronti di Anna, i due fratelli cominceranno a conoscerla meglio, e la bambina cambierà per sempre le loro vite. Anna diventerá la migliore amica di Diana Barry

88f9875045d14b33b121c2bd08c67fc4.mkv (1.7 GB)



General
Unique ID : 25955417633827938027077234593332018233 (0x1386D4E4000B732F8C822C1974B93C39)
Complete name : ./88f9875045d14b33b121c2bd08c67fc4.mkv
Format : Matroska
Format version : Version 4 / Version 2
File size : 1.70 GiB
Duration : 44 min 8 s
Overall bit rate : 5 515 kb/s
Encoded date : UTC 2019-12-03 11:55:10
Writing application : mkvmerge v40.0.0 ('Old Town Road + Pony') 64-bit
Writing library : libebml v1.3.9 + libmatroska v1.5.2

Video
ID : 1
Format : AVC
Format/Info : Advanced Video Codec
Format profile : High@L4
Format settings : CABAC / 4 Ref Frames
Format settings, CABAC : Yes
Format settings, RefFrames : 4 frames
Codec ID : V_MPEG4/ISO/AVC
Duration : 44 min 8 s
Bit rate : 5 129 kb/s
Width : 1 920 pixels
Height : 1 080 pixels
Display aspect ratio : 16:9
Frame rate mode : Constant
Frame rate : 23.976 (23976/1000) FPS
Color space : YUV
Chroma subsampling : 4:2:0
Bit depth : 8 bits
Scan type : Progressive
Bits/(Pixel*Frame) : 0.103
Stream size : 1.58 GiB (93%)
Language : English
Default : Yes
Forced : No
Color range : Limited
Color primaries : BT.709
Transfer characteristics : BT.709
Matrix coefficients : BT.709

Audio
ID : 2
Format : AC-3
Format/Info : Audio Coding 3
Format settings, Endianness : Big
Codec ID : A_AC3
Duration : 44 min 8 s
Bit rate mode : Constant
Bit rate : 384 kb/s
Channel(s) : 6 channels
Channel positions : Front: L C R, Side: L R, LFE
Sampling rate : 48.0 kHz
Frame rate : 31.250 FPS (1536 SPF)
Bit depth : 16 bits
Compression mode : Lossy
Delay relative to video : -42 ms
Stream size : 121 MiB (7%)
Language : English
Service kind : Complete Main
Default : Yes
Forced : No

Text
ID : 3
Format : UTF-8
Codec ID : S_TEXT/UTF8
Codec ID/Info : UTF-8 Plain Text
Duration : 44 min 5 s
Bit rate : 73 b/s
Count of elements : 700
Stream size : 23.8 KiB (0%)
Title : SDH
Language : English
Default : No
Forced : No





Chiamatemi Anna S03E06


Chiamatemi Anna S03E06


Chiamatemi Anna S03E06


Chiamatemi Anna S03E06


Chiamatemi Anna S03E06

All episodes