Index
# A B C D E F G H I J K L M N O P Q R S T U V W Y Z
Tags
Language
Tags

Featured TV Shows


Chiamatemi Anna S03E08

Posted By: Tavaz
1080p (FullHD) / WEB-DL IMDb
Chiamatemi Anna S03E08

Chiamatemi Anna S03E08
WEB-DL | MKV | 1920x1080 | English | H264 @ 5156 kbps | AC-3 @ 384 kbps | 44 min 8 s | 1.71 GiB
Subtitles: English
Genre: Dramma, Famiglia


Dopo aver trascorso la propria infanzia in diversi orfanotrofi, la giovane Anna viene mandata per errore a vivere con gli anziani fratelli Marilla e Matthew Cuthbert. Dopo un'iniziale diffidenza nei confronti di Anna, i due fratelli cominceranno a conoscerla meglio, e la bambina cambierà per sempre le loro vite. Anna diventerá la migliore amica di Diana Barry

1161fa4728604858bcb9ff3c44985d78.mkv (1.7 GB)



General
Unique ID : 118121585684371337431205047132191438398 (0x58DD63D025553A44F5E677BB1977B63E)
Complete name : ./1161fa4728604858bcb9ff3c44985d78.mkv
Format : Matroska
Format version : Version 4 / Version 2
File size : 1.71 GiB
Duration : 44 min 8 s
Overall bit rate : 5 542 kb/s
Encoded date : UTC 2019-12-03 12:01:17
Writing application : mkvmerge v40.0.0 ('Old Town Road + Pony') 64-bit
Writing library : libebml v1.3.9 + libmatroska v1.5.2

Video
ID : 1
Format : AVC
Format/Info : Advanced Video Codec
Format profile : High@L4
Format settings : CABAC / 4 Ref Frames
Format settings, CABAC : Yes
Format settings, RefFrames : 4 frames
Codec ID : V_MPEG4/ISO/AVC
Duration : 44 min 8 s
Bit rate : 5 156 kb/s
Width : 1 920 pixels
Height : 1 080 pixels
Display aspect ratio : 16:9
Frame rate mode : Constant
Frame rate : 23.976 (23976/1000) FPS
Color space : YUV
Chroma subsampling : 4:2:0
Bit depth : 8 bits
Scan type : Progressive
Bits/(Pixel*Frame) : 0.104
Stream size : 1.59 GiB (93%)
Language : English
Default : Yes
Forced : No
Color range : Limited
Color primaries : BT.709
Transfer characteristics : BT.709
Matrix coefficients : BT.709

Audio
ID : 2
Format : AC-3
Format/Info : Audio Coding 3
Format settings, Endianness : Big
Codec ID : A_AC3
Duration : 44 min 8 s
Bit rate mode : Constant
Bit rate : 384 kb/s
Channel(s) : 6 channels
Channel positions : Front: L C R, Side: L R, LFE
Sampling rate : 48.0 kHz
Frame rate : 31.250 FPS (1536 SPF)
Bit depth : 16 bits
Compression mode : Lossy
Delay relative to video : -42 ms
Stream size : 121 MiB (7%)
Language : English
Service kind : Complete Main
Default : Yes
Forced : No

Text
ID : 3
Format : UTF-8
Codec ID : S_TEXT/UTF8
Codec ID/Info : UTF-8 Plain Text
Duration : 44 min 0 s
Bit rate : 69 b/s
Count of elements : 642
Stream size : 22.3 KiB (0%)
Title : SDH
Language : English
Default : No
Forced : No





Chiamatemi Anna S03E08


Chiamatemi Anna S03E08


Chiamatemi Anna S03E08


Chiamatemi Anna S03E08


Chiamatemi Anna S03E08

All episodes