Index
# A B C D E F G H I J K L M N O P Q R S T U V W Y Z
Tags
Language
Tags

Featured TV Shows


Anne with an E S03E06

Posted By: Tavaz
720p (HD) / BDRip IMDb
Anne with an E S03E06

Anne with an E S03E06
BDRip | MKV | 1280x720 | English | H264 @ 4012 kbps | AC-3 @ 640 kbps | 42 min 24 s | 1.38 GiB
Subtitles: English
Genre: Drama, Family


A coming-of-age story about an outsider who, against all odds and numerous challenges, fights for love and acceptance and for her place in the world. The series centers on a young orphaned girl in the late 1890’s, who, after an abusive childhood spent in orphanages and the homes of strangers, is mistakenly sent to live with an elderly woman and her aging brother. Over time, 13-year-old Anne will transform their lives and eventually the small town in which they live with her unique spirit, fierce intellect and brilliant imagination.

a280f218c5a643e3b5949f401e9f49bc.mkv (1.4 GB)



General
Unique ID : 36870619942821381101396533302181216460 (0x1BBD05E9FC88DE45403897251DB3C0CC)
Complete name : ./a280f218c5a643e3b5949f401e9f49bc.mkv
Format : Matroska
Format version : Version 4 / Version 2
File size : 1.38 GiB
Duration : 42 min 24 s
Overall bit rate : 4 670 kb/s
Encoded date : UTC 2020-12-11 13:46:22
Writing application : mkvmerge v50.0.0 ('Awakenings') 64-bit
Writing library : libebml v1.4.0 + libmatroska v1.6.2

Video
ID : 1
Format : AVC
Format/Info : Advanced Video Codec
Format profile : High@L4.1
Format settings : CABAC / 9 Ref Frames
Format settings, CABAC : Yes
Format settings, RefFrames : 9 frames
Codec ID : V_MPEG4/ISO/AVC
Duration : 42 min 24 s
Bit rate : 4 012 kb/s
Width : 1 280 pixels
Height : 720 pixels
Display aspect ratio : 16:9
Frame rate mode : Constant
Frame rate : 25.000 FPS
Color space : YUV
Chroma subsampling : 4:2:0
Bit depth : 8 bits
Scan type : Progressive
Bits/(Pixel*Frame) : 0.174
Stream size : 1.19 GiB (86%)
Writing library : x264 core 161 r3027 4121277
Encoding settings : cabac=1 / ref=9 / deblock=1:-3:-3 / analyse=0x3:0x133 / me=umh / subme=10 / psy=1 / psy_rd=1.20:0.00 / mixed_ref=1 / me_range=24 / chroma_me=1 / trellis=2 / 8x8dct=1 / cqm=0 / deadzone=21,11 / fast_pskip=0 / chroma_qp_offset=-2 / threads=6 / lookahead_threads=1 / sliced_threads=0 / nr=0 / decimate=0 / interlaced=0 / bluray_compat=0 / constrained_intra=0 / bframes=8 / b_pyramid=2 / b_adapt=2 / b_bias=0 / direct=3 / weightb=1 / open_gop=0 / weightp=2 / keyint=250 / keyint_min=25 / scenecut=40 / intra_refresh=0 / rc_lookahead=60 / rc=crf / mbtree=1 / crf=16.0 / qcomp=0.60 / qpmin=0 / qpmax=69 / qpstep=4 / ip_ratio=1.40 / aq=3:0.90
Default : Yes
Forced : No
Color range : Limited
Matrix coefficients : BT.709

Audio
ID : 2
Format : AC-3
Format/Info : Audio Coding 3
Format settings, Endianness : Big
Codec ID : A_AC3
Duration : 42 min 24 s
Bit rate mode : Constant
Bit rate : 640 kb/s
Channel(s) : 6 channels
Channel positions : Front: L C R, Side: L R, LFE
Sampling rate : 48.0 kHz
Frame rate : 31.250 FPS (1536 SPF)
Bit depth : 16 bits
Compression mode : Lossy
Stream size : 194 MiB (14%)
Language : English
Service kind : Complete Main
Default : Yes
Forced : No

Text #1
ID : 3
Format : UTF-8
Codec ID : S_TEXT/UTF8
Codec ID/Info : UTF-8 Plain Text
Duration : 18 s 240 ms
Bit rate : 20 b/s
Count of elements : 2
Stream size : 46.0 Bytes (0%)
Title : English (Forced)
Language : English
Default : Yes
Forced : Yes

Text #2
ID : 4
Format : PGS
Muxing mode : zlib
Codec ID : S_HDMV/PGS
Codec ID/Info : Picture based subtitle format used on BDs/HD-DVDs
Duration : 42 min 18 s
Bit rate : 55.7 kb/s
Count of elements : 1518
Stream size : 16.8 MiB (1%)
Title : SDH
Language : English
Default : No
Forced : No

Text #3
ID : 5
Format : PGS
Muxing mode : zlib
Codec ID : S_HDMV/PGS
Codec ID/Info : Picture based subtitle format used on BDs/HD-DVDs
Duration : 20 min 23 s
Bit rate : 225 b/s
Count of elements : 6
Stream size : 33.6 KiB (0%)
Title : Forced
Language : English
Default : No
Forced : No

Menu
00:00:00.000 : en:Chapter 01
00:09:49.840 : en:Chapter 02
00:21:26.280 : en:Chapter 03
00:32:30.720 : en:Chapter 04





Anne with an E S03E06


Anne with an E S03E06


Anne with an E S03E06


Anne with an E S03E06


Anne with an E S03E06

All episodes