Index
# A B C D E F G H I J K L M N O P Q R S T U V W Y Z
Tags
Language
Tags

Featured TV Shows


EDENS ZERO S01E17

Posted By: MegoNecia
EDENS ZERO S01E17

EDENS ZERO S01E17
MKV | 1920x1080 | 日本語 | H264 @ 2339 kbps | E-AC-3 @ 128 kbps | 23 min 22 s | 421 MiB
Genre: Animation, Comedy


Aboard the Edens Zero, a lonely boy with the ability to control gravity embarks on an adventure to meet the fabled space goddess known as Mother.

[Aoneko Subs] Edens Zero - S01E17 (1080p) [English Subs].mkv (420.9 MB)



General
Unique ID : 229441848514428788556161809617930478845 (0xAC9CE48508E8302AA085DD4F4BACE4FD)
Complete name : ./[Aoneko Subs] Edens Zero - S01E17 (1080p) [English Subs].mkv
Format : Matroska
Format version : Version 2
File size : 421 MiB
Duration : 23 min 22 s
Overall bit rate mode : Variable
Overall bit rate : 2 518 kb/s
Encoded date : UTC 2021-07-31 22:24:47
Writing application : mkvmerge v5.3.0 ('I could have danced') built on Feb 9 2012 10:38:07
Writing library : libebml v1.2.3 + libmatroska v1.3.0

Video
ID : 1
Format : AVC
Format/Info : Advanced Video Codec
Format profile : Main@L4
Format settings : CABAC / 3 Ref Frames
Format settings, CABAC : Yes
Format settings, RefFrames : 3 frames
Muxing mode : Header stripping
Codec ID : V_MPEG4/ISO/AVC
Duration : 23 min 22 s
Bit rate mode : Variable
Bit rate : 2 340 kb/s
Nominal bit rate : 3 830 kb/s
Maximum bit rate : 5 745 kb/s
Width : 1 920 pixels
Height : 1 080 pixels
Display aspect ratio : 16:9
Frame rate mode : Constant
Frame rate : 23.976 (24000/1001) FPS
Color space : YUV
Chroma subsampling : 4:2:0
Bit depth : 8 bits
Scan type : Progressive
Bits/(Pixel*Frame) : 0.047
Stream size : 391 MiB (93%)
Writing library : x264 core 148 r2722 1b0121b
Encoding settings : cabac=1 / ref=3 / deblock=1:0:0 / analyse=0x1:0x111 / me=umh / subme=10 / psy=1 / psy_rd=1.00:0.00 / mixed_ref=1 / me_range=24 / chroma_me=1 / trellis=2 / 8x8dct=0 / cqm=0 / deadzone=21,11 / fast_pskip=1 / chroma_qp_offset=-2 / threads=8 / lookahead_threads=1 / sliced_threads=0 / nr=0 / decimate=1 / interlaced=0 / bluray_compat=0 / stitchable=1 / constrained_intra=0 / bframes=2 / b_pyramid=0 / b_adapt=2 / b_bias=0 / direct=3 / weightb=1 / open_gop=0 / weightp=2 / keyint=250 / keyint_min=23 / scenecut=0 / intra_refresh=0 / rc_lookahead=48 / rc=2pass / mbtree=1 / bitrate=3830 / ratetol=1.0 / qcomp=0.50 / qpmin=6 / qpmax=51 / qpstep=4 / cplxblur=20.0 / qblur=0.5 / vbv_maxrate=5745 / vbv_bufsize=7660 / nal_hrd=vbr / filler=0 / ip_ratio=1.40 / aq=1:1.00
Default : Yes
Forced : No
Statistics Tags Issue : mkvmerge v59.0.0 ('Shining Star') 64-bit 2021-07-31 17:04:26 / mkvmerge v5.3.0 ('I could have danced') built on Feb 9 2012 10:38:07 2021-07-31 22:24:47
FromStats_BitRate : 2388889
FromStats_Duration : 00:23:22.026000000
FromStats_FrameCount : 33615
FromStats_StreamSize : 418660727

Audio
ID : 2
Format : E-AC-3
Format/Info : Enhanced Audio Coding 3
Format settings, Endianness : Big
Muxing mode : Header stripping
Codec ID : A_EAC3
Duration : 23 min 22 s
Bit rate mode : Constant
Bit rate : 128 kb/s
Channel(s) : 2 channels
Channel positions : Front: L R
Sampling rate : 48.0 kHz
Frame rate : 187.500 FPS (256 SPF)
Compression mode : Lossy
Delay relative to video : 32 ms
Stream size : 21.4 MiB (5%)
Title : Japanese
Language : Japanese
Service kind : Complete Main
Default : No
Forced : No
Statistics Tags Issue : mkvmerge v59.0.0 ('Shining Star') 64-bit 2021-07-31 17:04:26 / mkvmerge v5.3.0 ('I could have danced') built on Feb 9 2012 10:38:07 2021-07-31 22:24:47
FromStats_BitRate : 128000
FromStats_Duration : 00:23:22.144000000
FromStats_FrameCount : 43817
FromStats_StreamSize : 22434304

Text
ID : 3
Format : ASS
Codec ID : S_TEXT/ASS
Codec ID/Info : Advanced Sub Station Alpha
Compression mode : Lossless
Default : Yes
Forced : No





EDENS ZERO S01E17


EDENS ZERO S01E17


EDENS ZERO S01E17


EDENS ZERO S01E17


EDENS ZERO S01E17

All episodes