Arrested Development S05E12

Posted By: Tavaz
1080p (FullHD) / WEBRip IMDb
Arrested Development S05E12

Arrested Development S05E12
WEBRip | MKV | 1920x1080 | English | H264 @ 4220 kbps | E-AC-3 @ 640 kbps | 25 min 46 s | 877 MiB
Subtitles: Swedish, Danish, Norwegian Bokmal, Finnish, English
Genre: Comedy

The story of a wealthy family that lost everything, and the one son who had no choice but to keep them all together.

arrested.development.s05e12.1080p.web.x264-strife.mkv (876.8 MB)



General
Unique ID : 232444741936559340275632231764658498845 (0xAEDF3A989B65986E48423DAF401C2D1D)
Complete name : ./arrested.development.s05e12.1080p.web.x264-strife.mkv
Format : Matroska
Format version : Version 4 / Version 2
File size : 877 MiB
Duration : 25 min 46 s
Overall bit rate mode : Variable
Overall bit rate : 4 758 kb/s
Encoded date : UTC 2019-03-15 07:02:18
Writing application : mkvmerge v31.0.0 ('Dolores In A Shoestand') 64-bit
Writing library : libebml v1.3.6 + libmatroska v1.4.9

Video
ID : 1
Format : AVC
Format/Info : Advanced Video Codec
Format profile : Main@L4
Format settings : CABAC / 3 Ref Frames
Format settings, CABAC : Yes
Format settings, RefFrames : 3 frames
Codec ID : V_MPEG4/ISO/AVC
Duration : 25 min 45 s
Bit rate mode : Variable
Bit rate : 4 220 kb/s
Maximum bit rate : 6 330 kb/s
Width : 1 920 pixels
Height : 1 080 pixels
Display aspect ratio : 16:9
Frame rate mode : Constant
Frame rate : 23.976 (24000/1001) FPS
Color space : YUV
Chroma subsampling : 4:2:0
Bit depth : 8 bits
Scan type : Progressive
Bits/(Pixel*Frame) : 0.085
Stream size : 758 MiB (86%)
Writing library : x264 core 148 r2715 7e75228
Encoding settings : cabac=1 / ref=3 / deblock=1:0:0 / analyse=0x1:0x111 / me=umh / subme=10 / psy=1 / psy_rd=1.00:0.00 / mixed_ref=1 / me_range=24 / chroma_me=1 / trellis=2 / 8x8dct=0 / cqm=0 / deadzone=21,11 / fast_pskip=1 / chroma_qp_offset=-2 / threads=8 / lookahead_threads=1 / sliced_threads=0 / nr=0 / decimate=1 / interlaced=0 / bluray_compat=0 / stitchable=1 / constrained_intra=0 / bframes=2 / b_pyramid=0 / b_adapt=2 / b_bias=0 / direct=3 / weightb=1 / open_gop=0 / weightp=2 / keyint=48 / keyint_min=25 / scenecut=0 / intra_refresh=0 / rc_lookahead=48 / rc=2pass / mbtree=1 / bitrate=4220 / ratetol=1.0 / qcomp=0.50 / qpmin=6 / qpmax=51 / qpstep=4 / cplxblur=20.0 / qblur=0.5 / vbv_maxrate=6330 / vbv_bufsize=8440 / nal_hrd=vbr / filler=0 / ip_ratio=1.40 / aq=1:1.00
Default : Yes
Forced : No

Audio
ID : 2
Format : E-AC-3
Format/Info : Enhanced Audio Coding 3
Format settings, Endianness : Big
Codec ID : A_EAC3
Duration : 25 min 46 s
Bit rate mode : Constant
Bit rate : 640 kb/s
Channel(s) : 6 channels
Channel positions : Front: L C R, Side: L R, LFE
Sampling rate : 48.0 kHz
Frame rate : 187.500 FPS (256 SPF)
Compression mode : Lossy
Stream size : 118 MiB (13%)
Language : English
Service kind : Complete Main
Default : Yes
Forced : No

Text #1
ID : 3
Format : UTF-8
Codec ID : S_TEXT/UTF8
Codec ID/Info : UTF-8 Plain Text
Duration : 24 min 27 s
Bit rate : 128 b/s
Count of elements : 576
Stream size : 23.0 KiB (0%)
Language : English
Default : No
Forced : No

Text #2
ID : 4
Format : UTF-8
Codec ID : S_TEXT/UTF8
Codec ID/Info : UTF-8 Plain Text
Duration : 25 min 9 s
Bit rate : 90 b/s
Count of elements : 444
Stream size : 16.7 KiB (0%)
Language : Danish
Default : No
Forced : No

Text #3
ID : 5
Format : UTF-8
Codec ID : S_TEXT/UTF8
Codec ID/Info : UTF-8 Plain Text
Duration : 25 min 8 s
Bit rate : 99 b/s
Count of elements : 507
Stream size : 18.4 KiB (0%)
Language : Finnish
Default : No
Forced : No

Text #4
ID : 6
Format : UTF-8
Codec ID : S_TEXT/UTF8
Codec ID/Info : UTF-8 Plain Text
Duration : 25 min 9 s
Bit rate : 102 b/s
Count of elements : 518
Stream size : 18.9 KiB (0%)
Language : Norwegian Bokmal
Default : No
Forced : No

Text #5
ID : 7
Format : UTF-8
Codec ID : S_TEXT/UTF8
Codec ID/Info : UTF-8 Plain Text
Duration : 25 min 9 s
Bit rate : 105 b/s
Count of elements : 474
Stream size : 19.4 KiB (0%)
Language : Swedish
Default : No
Forced : No





Arrested Development S05E12


Arrested Development S05E12


Arrested Development S05E12


Arrested Development S05E12


Arrested Development S05E12

All episodes