Arrested Development S05E14

Posted By: Tavaz
1080p (FullHD) / WEBRip IMDb
Arrested Development S05E14

Arrested Development S05E14
WEBRip | MKV | 1920x1080 | English | H264 @ 4640 kbps | E-AC-3 @ 640 kbps | 28 min 4 s | 1.02 GiB
Subtitles: Swedish, Danish, Norwegian Bokmal, Finnish, English
Genre: Comedy

The story of a wealthy family that lost everything, and the one son who had no choice but to keep them all together.

arrested.development.s05e14.1080p.web.x264-strife.mkv (1.0 GB)



General
Unique ID : 69779887482560111937887786409399428371 (0x347F1E134A996BF10C19154315102513)
Complete name : ./arrested.development.s05e14.1080p.web.x264-strife.mkv
Format : Matroska
Format version : Version 4 / Version 2
File size : 1.02 GiB
Duration : 28 min 4 s
Overall bit rate mode : Variable
Overall bit rate : 5 206 kb/s
Encoded date : UTC 2019-03-15 07:02:50
Writing application : mkvmerge v31.0.0 ('Dolores In A Shoestand') 64-bit
Writing library : libebml v1.3.6 + libmatroska v1.4.9

Video
ID : 1
Format : AVC
Format/Info : Advanced Video Codec
Format profile : Main@L4
Format settings : CABAC / 3 Ref Frames
Format settings, CABAC : Yes
Format settings, RefFrames : 3 frames
Codec ID : V_MPEG4/ISO/AVC
Duration : 28 min 3 s
Bit rate mode : Variable
Bit rate : 4 640 kb/s
Maximum bit rate : 6 960 kb/s
Width : 1 920 pixels
Height : 1 080 pixels
Display aspect ratio : 16:9
Frame rate mode : Constant
Frame rate : 23.976 (24000/1001) FPS
Color space : YUV
Chroma subsampling : 4:2:0
Bit depth : 8 bits
Scan type : Progressive
Bits/(Pixel*Frame) : 0.093
Stream size : 916 MiB (88%)
Writing library : x264 core 148 r2715 7e75228
Encoding settings : cabac=1 / ref=3 / deblock=1:0:0 / analyse=0x1:0x111 / me=umh / subme=10 / psy=1 / psy_rd=1.00:0.00 / mixed_ref=1 / me_range=24 / chroma_me=1 / trellis=2 / 8x8dct=0 / cqm=0 / deadzone=21,11 / fast_pskip=1 / chroma_qp_offset=-2 / threads=8 / lookahead_threads=1 / sliced_threads=0 / nr=0 / decimate=1 / interlaced=0 / bluray_compat=0 / stitchable=1 / constrained_intra=0 / bframes=2 / b_pyramid=0 / b_adapt=2 / b_bias=0 / direct=3 / weightb=1 / open_gop=0 / weightp=2 / keyint=48 / keyint_min=25 / scenecut=0 / intra_refresh=0 / rc_lookahead=48 / rc=2pass / mbtree=1 / bitrate=4640 / ratetol=1.0 / qcomp=0.50 / qpmin=6 / qpmax=51 / qpstep=4 / cplxblur=20.0 / qblur=0.5 / vbv_maxrate=6960 / vbv_bufsize=9280 / nal_hrd=vbr / filler=0 / ip_ratio=1.40 / aq=1:1.00
Default : Yes
Forced : No

Audio
ID : 2
Format : E-AC-3
Format/Info : Enhanced Audio Coding 3
Format settings, Endianness : Big
Codec ID : A_EAC3
Duration : 28 min 4 s
Bit rate mode : Constant
Bit rate : 640 kb/s
Channel(s) : 6 channels
Channel positions : Front: L C R, Side: L R, LFE
Sampling rate : 48.0 kHz
Frame rate : 187.500 FPS (256 SPF)
Compression mode : Lossy
Stream size : 128 MiB (12%)
Language : English
Service kind : Complete Main
Default : Yes
Forced : No

Text #1
ID : 3
Format : UTF-8
Codec ID : S_TEXT/UTF8
Codec ID/Info : UTF-8 Plain Text
Duration : 26 min 45 s
Bit rate : 130 b/s
Count of elements : 622
Stream size : 25.5 KiB (0%)
Language : English
Default : No
Forced : No

Text #2
ID : 4
Format : UTF-8
Codec ID : S_TEXT/UTF8
Codec ID/Info : UTF-8 Plain Text
Duration : 27 min 25 s
Bit rate : 103 b/s
Count of elements : 501
Stream size : 20.9 KiB (0%)
Language : Danish
Default : No
Forced : No

Text #3
ID : 5
Format : UTF-8
Codec ID : S_TEXT/UTF8
Codec ID/Info : UTF-8 Plain Text
Duration : 27 min 25 s
Bit rate : 95 b/s
Count of elements : 530
Stream size : 19.2 KiB (0%)
Language : Finnish
Default : No
Forced : No

Text #4
ID : 6
Format : UTF-8
Codec ID : S_TEXT/UTF8
Codec ID/Info : UTF-8 Plain Text
Duration : 27 min 25 s
Bit rate : 107 b/s
Count of elements : 570
Stream size : 21.6 KiB (0%)
Language : Norwegian Bokmal
Default : No
Forced : No

Text #5
ID : 7
Format : UTF-8
Codec ID : S_TEXT/UTF8
Codec ID/Info : UTF-8 Plain Text
Duration : 27 min 26 s
Bit rate : 107 b/s
Count of elements : 539
Stream size : 21.6 KiB (0%)
Language : Swedish
Default : No
Forced : No





Arrested Development S05E14


Arrested Development S05E14


Arrested Development S05E14


Arrested Development S05E14


Arrested Development S05E14

All episodes