Index
# A B C D E F G H I J K L M N O P Q R S T U V W Y Z
Tags
Language
Tags

Featured TV Shows


Ash vs Evil Dead S01E01

Posted By: Tavaz
720p (HD) / BDRip IMDb
Ash vs Evil Dead S01E01

Ash vs Evil Dead S01E01
BDRip | MKV | 1280x720 | English / English | H264 @ 9350 kbps | AC-3 @ 640 kbps | 44 min 12 s | 2.92 GiB
Subtitles: English
Genre: Action, Comedy, Fantasy, Horror

Bruce Campbell reprises his role as Ash Williams, an aging lothario and chainsaw-handed monster hunter who’s spent the last three decades avoiding maturity, and the terrors of the Evil Dead. But when a Deadite plague threatens to destroy all of mankind, he’s forced to face his demons — both metaphorical and literal.

c959ad2854f74417bd70035c7d7258e3.mkv (2.9 GB)



General
Unique ID : 178899925804849070245756874300149514665 (0x8696DF56A15241A9B974A7375B7CC1A9)
Complete name : ./c959ad2854f74417bd70035c7d7258e3.mkv
Format : Matroska
Format version : Version 4 / Version 2
File size : 2.92 GiB
Duration : 44 min 12 s
Overall bit rate : 9 458 kb/s
Encoded date : UTC 2016-08-30 14:27:26
Writing application : mkvmerge v9.3.1 ('Mask Machine') 64bit
Writing library : libebml v1.3.4 + libmatroska v1.4.5

Video
ID : 1
Format : AVC
Format/Info : Advanced Video Codec
Format profile : High@L4.1
Format settings : CABAC / 9 Ref Frames
Format settings, CABAC : Yes
Format settings, RefFrames : 9 frames
Codec ID : V_MPEG4/ISO/AVC
Duration : 40 min 46 s
Bit rate : 9 350 kb/s
Width : 1 280 pixels
Height : 720 pixels
Display aspect ratio : 16:9
Frame rate mode : Constant
Frame rate : 23.976 (24000/1001) FPS
Color space : YUV
Chroma subsampling : 4:2:0
Bit depth : 8 bits
Scan type : Progressive
Bits/(Pixel*Frame) : 0.423
Stream size : 2.66 GiB (91%)
Writing library : x264 core 148 r2705kMod 3f5ed56
Encoding settings : cabac=1 / ref=9 / deblock=1:-3:-3 / analyse=0x3:0x133 / me=umh / subme=10 / psy=1 / fade_compensate=0.00 / psy_rd=1.05:0.00 / mixed_ref=1 / me_range=24 / chroma_me=1 / trellis=2 / 8x8dct=1 / cqm=0 / deadzone=21,11 / fast_pskip=0 / chroma_qp_offset=-2 / threads=12 / lookahead_threads=2 / sliced_threads=0 / nr=0 / decimate=0 / interlaced=0 / bluray_compat=0 / constrained_intra=0 / fgo=0 / bframes=8 / b_pyramid=2 / b_adapt=2 / b_bias=0 / direct=3 / weightb=1 / open_gop=0 / weightp=2 / keyint=250 / keyint_min=23 / scenecut=40 / intra_refresh=0 / rc_lookahead=60 / rc=crf / mbtree=0 / crf=16.5000 / qcomp=0.60 / qpmin=0 / qpmax=69 / qpstep=4 / vbv_maxrate=62500 / vbv_bufsize=78125 / crf_max=0.0 / nal_hrd=none / filler=0 / ip_ratio=1.30 / pb_ratio=1.20 / aq=3:0.75
Language : English
Default : Yes
Forced : No
Color range : Limited
Matrix coefficients : BT.709

Audio #1
ID : 4
Format : AC-3
Format/Info : Audio Coding 3
Format settings, Endianness : Big
Codec ID : A_AC3
Duration : 44 min 12 s
Bit rate mode : Constant
Bit rate : 640 kb/s
Channel(s) : 6 channels
Channel positions : Front: L C R, Side: L R, LFE
Sampling rate : 48.0 kHz
Frame rate : 31.250 FPS (1536 SPF)
Bit depth : 16 bits
Compression mode : Lossy
Stream size : 202 MiB (7%)
Language : English
Service kind : Complete Main
Default : Yes
Forced : No

Audio #2
ID : 5
Format : AC-3
Format/Info : Audio Coding 3
Format settings, Endianness : Big
Codec ID : A_AC3
Duration : 44 min 12 s
Bit rate mode : Constant
Bit rate : 192 kb/s
Channel(s) : 2 channels
Channel positions : Front: L R
Sampling rate : 48.0 kHz
Frame rate : 31.250 FPS (1536 SPF)
Bit depth : 16 bits
Compression mode : Lossy
Stream size : 60.7 MiB (2%)
Title : Audio Commentary.
Language : English
Service kind : Complete Main
Default : No
Forced : No

Text #1
ID : 2
Format : UTF-8
Codec ID : S_TEXT/UTF8
Codec ID/Info : UTF-8 Plain Text
Duration : 40 min 16 s
Bit rate : 50 b/s
Count of elements : 613
Stream size : 14.8 KiB (0%)
Title : SDH
Language : English
Default : Yes
Forced : No

Text #2
ID : 3
Format : UTF-8
Codec ID : S_TEXT/UTF8
Codec ID/Info : UTF-8 Plain Text
Duration : 39 min 52 s
Bit rate : 43 b/s
Count of elements : 498
Stream size : 12.6 KiB (0%)
Language : English
Default : No
Forced : No

Menu
00:00:00.000 : en:00:00:00.000
00:13:22.301 : en:00:13:22.301
00:20:06.872 : en:00:20:06.872
00:29:51.623 : en:00:29:51.623
00:39:08.680 : en:00:39:08.680





Ash vs Evil 			  		  		  		 	 	  	 			   		   	  		 			  		  	   	 			   		  	   		      		  		  	 			   			     		 						 Dead S01E01


Ash vs Evil Dead S01E01


Ash vs Evil Dead S01E01


Ash vs Evil Dead S01E01


Ash vs Evil Dead S01E01

All episodes