Index
# A B C D E F G H I J K L M N O P Q R S T U V W Y Z
Tags
Language
Tags

Featured TV Shows


Ash vs Evil Dead S02E02

Posted By: Tavaz
1080p (FullHD) / BDRip IMDb
Ash vs Evil Dead S02E02

Ash vs Evil Dead S02E02
BDRip | MKV | 1920x1080 | English | H264 @ 17177 kbps | AC-3 @ 640 kbps | 26 min 49 s | 3.34 GiB
Subtitles: English
Genre: Action, Comedy, Fantasy, Horror

Bruce Campbell reprises his role as Ash Williams, an aging lothario and chainsaw-handed monster hunter who’s spent the last three decades avoiding maturity, and the terrors of the Evil Dead. But when a Deadite plague threatens to destroy all of mankind, he’s forced to face his demons — both metaphorical and literal.

82f05458978143f8b9d4ef29afb9b05c.mkv (3.3 GB)



General
Unique ID : 186078169629313849490991952380437062503 (0x8BFD5A155ED20549BDEB23050D15E367)
Complete name : ./82f05458978143f8b9d4ef29afb9b05c.mkv
Format : Matroska
Format version : Version 2
File size : 3.34 GiB
Duration : 26 min 49 s
Overall bit rate : 17.8 Mb/s
Encoded date : UTC 2017-08-31 04:03:11
Writing application : mkvmerge v10.0.0 ('To Drown In You') 64bit
Writing library : libebml v1.3.4 + libmatroska v1.4.5

Video
ID : 1
Format : AVC
Format/Info : Advanced Video Codec
Format profile : High@L4.1
Format settings : CABAC / 4 Ref Frames
Format settings, CABAC : Yes
Format settings, RefFrames : 4 frames
Codec ID : V_MPEG4/ISO/AVC
Duration : 26 min 49 s
Bit rate : 17.2 Mb/s
Width : 1 920 pixels
Height : 1 080 pixels
Display aspect ratio : 16:9
Frame rate mode : Constant
Frame rate : 23.976 (24000/1001) FPS
Color space : YUV
Chroma subsampling : 4:2:0
Bit depth : 8 bits
Scan type : Progressive
Bits/(Pixel*Frame) : 0.346
Stream size : 3.22 GiB (96%)
Writing library : x264 core 148 r2705.16 d50a22e VietHD_Custom_64
Encoding settings : cabac=1 / ref=4 / deblock=1:-3:-3 / analyse=0x3:0x133 / me=umh / subme=10 / psy=1 / fade_compensate=0.00 / psy_rd=1.10:0.00 / mixed_ref=1 / me_range=24 / chroma_me=1 / trellis=2 / 8x8dct=1 / cqm=0 / deadzone=21,11 / fast_pskip=0 / chroma_qp_offset=-2 / threads=56 / lookahead_threads=8 / sliced_threads=0 / nr=0 / decimate=0 / interlaced=0 / bluray_compat=0 / constrained_intra=0 / fgo=0 / bframes=9 / b_pyramid=2 / b_adapt=2 / b_bias=0 / direct=3 / weightb=1 / open_gop=0 / weightp=2 / keyint=250 / keyint_min=23 / scenecut=40 / intra_refresh=0 / rc_lookahead=60 / rc=crf / mbtree=0 / crf=17.8500 / qcomp=0.65 / qpmin=0:0:0 / qpmax=69:69:69 / qpstep=4 / vbv_maxrate=62500 / vbv_bufsize=78125 / crf_max=0.0 / nal_hrd=none / filler=0 / ip_ratio=1.30 / pb_ratio=1.20 / aq=3:0.70 / aq-sensitivity=10.00 / aq-factor=1.00:1.00:1.00 / aq2=0 / aq3=0
Language : English
Default : Yes
Forced : No
Color range : Limited
Matrix coefficients : BT.709

Audio
ID : 2
Format : AC-3
Format/Info : Audio Coding 3
Format settings, Endianness : Big
Codec ID : A_AC3
Duration : 26 min 49 s
Bit rate mode : Constant
Bit rate : 640 kb/s
Channel(s) : 6 channels
Channel positions : Front: L C R, Side: L R, LFE
Sampling rate : 48.0 kHz
Frame rate : 31.250 FPS (1536 SPF)
Bit depth : 16 bits
Compression mode : Lossy
Stream size : 123 MiB (4%)
Language : English
Service kind : Complete Main
Default : Yes
Forced : No

Text
ID : 3
Format : UTF-8
Codec ID : S_TEXT/UTF8
Codec ID/Info : UTF-8 Plain Text
Duration : 26 min 38 s
Bit rate : 64 b/s
Count of elements : 369
Stream size : 12.6 KiB (0%)
Language : English
Default : Yes
Forced : No

Menu
00:00:00.000 : en:00:00:00.000
00:09:47.629 : en:00:09:47.629
00:20:44.577 : en:00:20:44.577
00:25:47.254 : en:00:25:47.254





Ash vs Evil Dead S02E02


Ash vs Evil Dead S02E02


Ash vs Evil Dead S02E02


Ash vs Evil Dead S02E02


Ash vs Evil Dead S02E02

All episodes