Index
# A B C D E F G H I J K L M N O P Q R S T U V W Y Z
Tags
Language
Tags

Featured TV Shows


Ash vs Evil Dead S03E03

Posted By: Tavaz
720p (HD) / WEBRip IMDb
Ash vs Evil Dead S03E03

Ash vs Evil Dead S03E03
WEB-DL | MKV | 1280x720 | German / English | H264 @ 3030 kbps | AC-3 @ 640 kbps | 28 min 35 s | 882 MiB
Subtitles: English
Genre: Action, Comedy, Fantasy, Horror

Bruce Campbell reprises his role as Ash Williams, an aging lothario and chainsaw-handed monster hunter who’s spent the last three decades avoiding maturity, and the terrors of the Evil Dead. But when a Deadite plague threatens to destroy all of mankind, he’s forced to face his demons — both metaphorical and literal.

S03E03 German DL - 720p HD.mkv (881.8 MB)



General
Unique ID : 224565048549486671420693498547180226708 (0xA8F1A7B7AD0CC8A7A97BCA5D705D4894)
Complete name : ./Die Teufel tanzen wieder S03E03 German DL - 720p HD/S03E03 German DL - 720p HD.mkv
Format : Matroska
Format version : Version 4 / Version 2
File size : 882 MiB
Duration : 28 min 35 s
Overall bit rate mode : Variable
Overall bit rate : 4 313 kb/s
Encoded date : UTC 2018-03-14 11:46:58
Writing application : mkvmerge v8.3.0 ('Over the Horizon') 64bit
Writing library : libebml v1.3.1 + libmatroska v1.4.2

Video
ID : 1
Format : AVC
Format/Info : Advanced Video Codec
Format profile : High@L3.1
Format settings : CABAC / 5 Ref Frames
Format settings, CABAC : Yes
Format settings, RefFrames : 5 frames
Codec ID : V_MPEG4/ISO/AVC
Duration : 28 min 35 s
Bit rate mode : Variable
Bit rate : 3 030 kb/s
Maximum bit rate : 4 500 kb/s
Width : 1 280 pixels
Height : 720 pixels
Display aspect ratio : 16:9
Frame rate mode : Constant
Frame rate : 23.976 (24000/1001) FPS
Color space : YUV
Chroma subsampling : 4:2:0
Bit depth : 8 bits
Scan type : Progressive
Bits/(Pixel*Frame) : 0.137
Stream size : 620 MiB (70%)
Language : German
Default : Yes
Forced : No
Color range : Limited
Color primaries : BT.709
Transfer characteristics : BT.709
Matrix coefficients : BT.709

Audio #1
ID : 2
Format : AC-3
Format/Info : Audio Coding 3
Format settings, Endianness : Big
Codec ID : A_AC3
Duration : 28 min 35 s
Bit rate mode : Constant
Bit rate : 640 kb/s
Channel(s) : 6 channels
Channel positions : Front: L C R, Side: L R, LFE
Sampling rate : 48.0 kHz
Frame rate : 31.250 FPS (1536 SPF)
Bit depth : 16 bits
Compression mode : Lossy
Delay relative to video : -81 ms
Stream size : 131 MiB (15%)
Language : German
Service kind : Complete Main
Default : Yes
Forced : No

Audio #2
ID : 3
Format : E-AC-3
Format/Info : Enhanced Audio Coding 3
Format settings, Endianness : Big
Codec ID : A_EAC3
Duration : 28 min 35 s
Bit rate mode : Constant
Bit rate : 640 kb/s
Channel(s) : 6 channels
Channel positions : Front: L C R, Side: L R, LFE
Sampling rate : 48.0 kHz
Frame rate : 187.500 FPS (256 SPF)
Compression mode : Lossy
Delay relative to video : -81 ms
Stream size : 131 MiB (15%)
Language : English
Service kind : Complete Main
Default : No
Forced : No

Text #1
ID : 4
Format : UTF-8
Codec ID : S_TEXT/UTF8
Codec ID/Info : UTF-8 Plain Text
Duration : 28 min 18 s
Bit rate : 49 b/s
Count of elements : 374
Stream size : 10.3 KiB (0%)
Title : English
Language : English
Default : No
Forced : No

Text #2
ID : 5
Format : UTF-8
Codec ID : S_TEXT/UTF8
Codec ID/Info : UTF-8 Plain Text
Duration : 28 min 22 s
Bit rate : 69 b/s
Count of elements : 512
Stream size : 14.5 KiB (0%)
Title : English (SDH)
Language : English
Default : No
Forced : No





Ash vs Evil Dead S03E03


Ash vs Evil Dead S03E03


Ash vs Evil Dead S03E03


Ash vs Evil Dead S03E03


Ash vs Evil Dead S03E03

All episodes