Index
# A B C D E F G H I J K L M N O P Q R S T U V W Y Z
Tags
Language
Tags

Featured TV Shows


Ash vs Evil Dead S03E03

Posted By: Tavaz
1080p (FullHD) / WEB-DL IMDb
Ash vs Evil Dead S03E03

Ash vs Evil Dead S03E03
WEB-DL | MKV | 1920x1080 | English | H264 @ 11066 kbps | E-AC-3 @ 640 kbps | 1 min 51 s | 155 MiB
Subtitles: English
Genre: Action, Comedy, Fantasy, Horror

Bruce Campbell reprises his role as Ash Williams, an aging lothario and chainsaw-handed monster hunter who’s spent the last three decades avoiding maturity, and the terrors of the Evil Dead. But when a Deadite plague threatens to destroy all of mankind, he’s forced to face his demons — both metaphorical and literal.

24b3264c47224f53a0df0c4c0744d5ac.mkv (155.5 MB)



General
Unique ID : 117550615825750743302407408478718929018 (0x586F6CD35A7A210323C0C51404DE287A)
Complete name : ./24b3264c47224f53a0df0c4c0744d5ac.mkv
Format : Matroska
Format version : Version 4 / Version 2
File size : 155 MiB
Duration : 1 min 51 s
Overall bit rate mode : Variable
Overall bit rate : 11.7 Mb/s
Encoded date : UTC 2018-03-12 11:34:17
Writing application : mkvmerge v19.0.0 ('Brave Captain') 64-bit
Writing library : libebml v1.3.5 + libmatroska v1.4.8

Video
ID : 1
Format : AVC
Format/Info : Advanced Video Codec
Format profile : High@L4
Format settings : CABAC / 4 Ref Frames
Format settings, CABAC : Yes
Format settings, RefFrames : 4 frames
Codec ID : V_MPEG4/ISO/AVC
Duration : 1 min 51 s
Bit rate mode : Variable
Bit rate : 11.1 Mb/s
Maximum bit rate : 15.0 Mb/s
Width : 1 920 pixels
Height : 1 080 pixels
Display aspect ratio : 16:9
Frame rate mode : Constant
Frame rate : 23.976 (24000/1001) FPS
Color space : YUV
Chroma subsampling : 4:2:0
Bit depth : 8 bits
Scan type : Progressive
Bits/(Pixel*Frame) : 0.223
Stream size : 147 MiB (95%)
Default : Yes
Forced : No
Color range : Limited
Color primaries : BT.709
Transfer characteristics : BT.709
Matrix coefficients : BT.709

Audio
ID : 2
Format : E-AC-3
Format/Info : Enhanced Audio Coding 3
Format settings, Endianness : Big
Codec ID : A_EAC3
Duration : 1 min 51 s
Bit rate mode : Constant
Bit rate : 640 kb/s
Channel(s) : 6 channels
Channel positions : Front: L C R, Side: L R, LFE
Sampling rate : 48.0 kHz
Frame rate : 187.500 FPS (256 SPF)
Compression mode : Lossy
Delay relative to video : 23 ms
Stream size : 8.49 MiB (5%)
Language : English
Service kind : Complete Main
Default : Yes
Forced : No

Text #1
ID : 3
Format : UTF-8
Codec ID : S_TEXT/UTF8
Codec ID/Info : UTF-8 Plain Text
Bit rate : 0 b/s
Count of elements : 0
Stream size : 0.00 Byte (0%)
Language : English
Default : No
Forced : No

Text #2
ID : 4
Format : UTF-8
Codec ID : S_TEXT/UTF8
Codec ID/Info : UTF-8 Plain Text
Bit rate : 0 b/s
Count of elements : 0
Stream size : 0.00 Byte (0%)
Title : SDH
Language : English
Default : No
Forced : No

Menu
00:00:00.000 : en:Inside the World





Ash vs Evil Dead S03E03


Ash vs Evil Dead S03E03


Ash vs Evil Dead S03E03


Ash vs Evil Dead S03E03


Ash vs Evil Dead S03E03

All episodes