Index
# A B C D E F G H I J K L M N O P Q R S T U V W Y Z
Tags
Language
Tags

Featured TV Shows


Ash vs Evil Dead S03E07

Posted By: Tavaz
1080p (FullHD) / WEBRip IMDb
Ash vs Evil Dead S03E07

Ash vs Evil Dead S03E07
WEBRip | MKV | 1920x1080 | English | H264 @ 9786 kbps | E-AC-3 @ 640 kbps | 26 min 53 s | 2.00 GiB
Subtitles: English
Genre: Action, Comedy, Fantasy, Horror

Bruce Campbell reprises his role as Ash Williams, an aging lothario and chainsaw-handed monster hunter who’s spent the last three decades avoiding maturity, and the terrors of the Evil Dead. But when a Deadite plague threatens to destroy all of mankind, he’s forced to face his demons — both metaphorical and literal.

Ash.vs.Evil.Dead.S03E07.1080p.WEB.H264-DEFLATE.mkv (2.0 GB)



General
Unique ID : 300756347750888158024716545293144433833 (0xE24390CBCDBF12E46BC8569FCF7A24A9)
Complete name : ./Ash.vs.Evil.Dead.S03E07.1080p.WEB.H264-DEFLATE.mkv
Format : Matroska
Format version : Version 4 / Version 2
File size : 2.00 GiB
Duration : 26 min 53 s
Overall bit rate mode : Variable
Overall bit rate : 10.6 Mb/s
Encoded date : UTC 2018-04-08 00:03:07
Writing application : mkvmerge v20.0.0 (master: 2421163 / deflate: b81f064) [X86_64]
Writing library : libebml v1.3.5 + libmatroska v1.4.8

Video
ID : 1
Format : AVC
Format/Info : Advanced Video Codec
Format profile : High@L4
Format settings : CABAC / 4 Ref Frames
Format settings, CABAC : Yes
Format settings, RefFrames : 4 frames
Codec ID : V_MPEG4/ISO/AVC
Duration : 26 min 53 s
Bit rate mode : Variable
Bit rate : 9 786 kb/s
Maximum bit rate : 15.0 Mb/s
Width : 1 920 pixels
Height : 1 080 pixels
Display aspect ratio : 16:9
Frame rate mode : Constant
Frame rate : 23.976 (24000/1001) FPS
Color space : YUV
Chroma subsampling : 4:2:0
Bit depth : 8 bits
Scan type : Progressive
Bits/(Pixel*Frame) : 0.197
Stream size : 1.84 GiB (92%)
Language : English
Default : Yes
Forced : No
Color range : Limited
Color primaries : BT.709
Transfer characteristics : BT.709
Matrix coefficients : BT.709

Audio
ID : 2
Format : E-AC-3
Format/Info : Enhanced Audio Coding 3
Format settings, Endianness : Big
Codec ID : A_EAC3
Duration : 26 min 53 s
Bit rate mode : Constant
Bit rate : 640 kb/s
Channel(s) : 6 channels
Channel positions : Front: L C R, Side: L R, LFE
Sampling rate : 48.0 kHz
Frame rate : 187.500 FPS (256 SPF)
Compression mode : Lossy
Stream size : 123 MiB (6%)
Language : English
Service kind : Complete Main
Default : Yes
Forced : No

Text #1
ID : 3
Format : UTF-8
Codec ID : S_TEXT/UTF8
Codec ID/Info : UTF-8 Plain Text
Title : English
Language : English
Default : No
Forced : No

Text #2
ID : 4
Format : UTF-8
Codec ID : S_TEXT/UTF8
Codec ID/Info : UTF-8 Plain Text
Title : English (SDH)
Language : English
Default : No
Forced : No





Ash vs Evil Dead S03E07


Ash vs Evil Dead S03E07


Ash vs Evil Dead S03E07


Ash vs Evil Dead S03E07


Ash vs Evil Dead S03E07

All episodes