Index
# A B C D E F G H I J K L M N O P Q R S T U V W Y Z
Tags
Language
Tags

Featured TV Shows


Ash vs Evil Dead S03E08

Posted By: Tavaz
720p (HD) / WEBRip IMDb
Ash vs Evil Dead S03E08

Ash vs Evil Dead S03E08
WEB-DL | MKV | 1280x600 | German / English | H264 @ 2854 kbps | AC-3 @ 640 kbps | 27 min 7 s | 803 MiB
Subtitles: English
Genre: Action, Komödie, Fantasy, Horror

Fast drei Jahrzehnte sind seit Kettensägenmassakern, Necronomicon und Splatterfun ins Land gezogen - jetzt ist es an der Zeit für Ash, den legendären Helden aus Sam Raimis "Tanz der Teufel"-Trilogie, die Kettensäge wieder zu entstauben. Denn abermals dringt das unsagbar Böse in Gestalt zahlloser Dämonen in unsere Welt und stellt unsere bisherige Vorstellung von blutleeren Horror-Serien vollkommen auf den Kopf.

S03E08 German DL - 720p HD.mkv (802.8 MB)



General
Unique ID : 214660256310845434598811393114657104905 (0xA17E0FC1BBCB0D1F9ECF545EF02DA409)
Complete name : ./Die Teufel tanzen wieder S03E08 German DL - 720p HD/S03E08 German DL - 720p HD.mkv
Format : Matroska
Format version : Version 4 / Version 2
File size : 803 MiB
Duration : 27 min 7 s
Overall bit rate mode : Variable
Overall bit rate : 4 137 kb/s
Encoded date : UTC 2018-04-17 16:19:03
Writing application : mkvmerge v8.3.0 ('Over the Horizon') 64bit
Writing library : libebml v1.3.1 + libmatroska v1.4.2

Video
ID : 1
Format : AVC
Format/Info : Advanced Video Codec
Format profile : High@L3.1
Format settings : CABAC / 5 Ref Frames
Format settings, CABAC : Yes
Format settings, RefFrames : 5 frames
Codec ID : V_MPEG4/ISO/AVC
Duration : 27 min 7 s
Bit rate mode : Variable
Bit rate : 2 855 kb/s
Maximum bit rate : 4 500 kb/s
Width : 1 280 pixels
Height : 600 pixels
Original height : 720 pixels
Display aspect ratio : 16:9
Frame rate mode : Constant
Frame rate : 23.976 (24000/1001) FPS
Color space : YUV
Chroma subsampling : 4:2:0
Bit depth : 8 bits
Scan type : Progressive
Bits/(Pixel*Frame) : 0.155
Stream size : 554 MiB (69%)
Language : English
Default : Yes
Forced : No
Color range : Limited
Color primaries : BT.709
Transfer characteristics : BT.709
Matrix coefficients : BT.709

Audio #1
ID : 2
Format : AC-3
Format/Info : Audio Coding 3
Format settings, Endianness : Big
Codec ID : A_AC3
Duration : 27 min 7 s
Bit rate mode : Constant
Bit rate : 640 kb/s
Channel(s) : 6 channels
Channel positions : Front: L C R, Side: L R, LFE
Sampling rate : 48.0 kHz
Frame rate : 31.250 FPS (1536 SPF)
Bit depth : 16 bits
Compression mode : Lossy
Stream size : 124 MiB (15%)
Language : German
Service kind : Complete Main
Default : Yes
Forced : No

Audio #2
ID : 3
Format : E-AC-3
Format/Info : Enhanced Audio Coding 3
Format settings, Endianness : Big
Codec ID : A_EAC3
Duration : 27 min 7 s
Bit rate mode : Constant
Bit rate : 640 kb/s
Channel(s) : 6 channels
Channel positions : Front: L C R, Side: L R, LFE
Sampling rate : 48.0 kHz
Frame rate : 187.500 FPS (256 SPF)
Compression mode : Lossy
Stream size : 124 MiB (15%)
Language : English
Service kind : Complete Main
Default : No
Forced : No

Text #1
ID : 4
Format : UTF-8
Codec ID : S_TEXT/UTF8
Codec ID/Info : UTF-8 Plain Text
Duration : 25 min 58 s
Bit rate : 54 b/s
Count of elements : 446
Stream size : 10.4 KiB (0%)
Title : English
Language : English
Default : No
Forced : No

Text #2
ID : 5
Format : UTF-8
Codec ID : S_TEXT/UTF8
Codec ID/Info : UTF-8 Plain Text
Duration : 26 min 54 s
Bit rate : 63 b/s
Count of elements : 551
Stream size : 12.5 KiB (0%)
Title : English (SDH)
Language : English
Default : No
Forced : No





Ash vs Evil Dead S03E08


Ash vs Evil Dead S03E08


Ash vs Evil Dead S03E08


Ash vs Evil Dead S03E08


Ash vs Evil Dead S03E08

All episodes