Index
# A B C D E F G H I J K L M N O P Q R S T U V W Y Z
Tags
Language
Tags

Featured TV Shows


Ash vs Evil Dead S03E08

Posted By: Tavaz
SD / BDRip IMDb
Ash vs Evil Dead S03E08

Ash vs Evil Dead S03E08
BDRip | MKV | 1024x576 | English / English | H264 @ 2925 kbps | AC-3 @ 448 kbps | 27 min 15 s | 703 MiB
Subtitles: English
Genre: Action, Comédie, Fantastique, Horreur

Ash Williams, vendeur dans un magasin et, accessoirement, tueur de démons, vient de passer les 30 dernières années à fuir ses responsabilités quant aux diverses menaces des créatures des ténèbres. Mais quand la peste Deadites menace de détruire l'humanité, Ash est contraint de prendre son destin en main et de faire face à ses démons pour sauver le monde à sa manière…

Ash.vs.Evil.Dead.S03E08.Rifting.Apart.576p.BluRay.DD5.1.x264-HiSD.mkv (702.5 MB)



General
Unique ID : 139095228489469989646742015222988267502 (0x68A4C43DBAE321E43C93F8658B9DDFEE)
Complete name : ./Ash.vs.Evil.Dead.S03E08.Rifting.Apart.576p.BluRay.DD5.1.x264-HiSD.mkv
Format : Matroska
Format version : Version 4 / Version 2
File size : 703 MiB
Duration : 27 min 15 s
Overall bit rate : 3 603 kb/s
Encoded date : UTC 2018-11-21 09:24:35
Writing application : mkvmerge v28.2.0 ('The Awakening') 64-bit
Writing library : libebml v1.3.6 + libmatroska v1.4.9

Video
ID : 1
Format : AVC
Format/Info : Advanced Video Codec
Format profile : High@L4.1
Format settings : CABAC / 9 Ref Frames
Format settings, CABAC : Yes
Format settings, RefFrames : 9 frames
Codec ID : V_MPEG4/ISO/AVC
Duration : 27 min 15 s
Bit rate : 2 925 kb/s
Width : 1 024 pixels
Height : 576 pixels
Display aspect ratio : 16:9
Frame rate mode : Constant
Frame rate : 23.976 (24000/1001) FPS
Color space : YUV
Chroma subsampling : 4:2:0
Bit depth : 8 bits
Scan type : Progressive
Bits/(Pixel*Frame) : 0.207
Stream size : 570 MiB (81%)
Writing library : x264 core 157 r2935 545de2f
Encoding settings : cabac=1 / ref=9 / deblock=1:-3:-3 / analyse=0x3:0x133 / me=umh / subme=10 / psy=1 / psy_rd=1.00:0.15 / mixed_ref=1 / me_range=32 / chroma_me=1 / trellis=2 / 8x8dct=1 / cqm=0 / deadzone=21,11 / fast_pskip=0 / chroma_qp_offset=-3 / threads=12 / lookahead_threads=2 / sliced_threads=0 / nr=0 / decimate=0 / interlaced=0 / bluray_compat=0 / constrained_intra=0 / bframes=8 / b_pyramid=2 / b_adapt=2 / b_bias=0 / direct=3 / weightb=1 / open_gop=0 / weightp=2 / keyint=250 / keyint_min=23 / scenecut=40 / intra_refresh=0 / rc_lookahead=60 / rc=crf / mbtree=0 / crf=18.0 / qcomp=0.65 / qpmin=0 / qpmax=69 / qpstep=4 / vbv_maxrate=30000 / vbv_bufsize=40000 / crf_max=0.0 / nal_hrd=none / filler=0 / ip_ratio=1.40 / pb_ratio=1.30 / aq=3:0.80
Default : Yes
Forced : No
Color range : Limited
Matrix coefficients : BT.709

Audio #1
ID : 2
Format : AC-3
Format/Info : Audio Coding 3
Format settings, Endianness : Big
Codec ID : A_AC3
Duration : 27 min 15 s
Bit rate mode : Constant
Bit rate : 448 kb/s
Channel(s) : 6 channels
Channel positions : Front: L C R, Side: L R, LFE
Sampling rate : 48.0 kHz
Frame rate : 31.250 FPS (1536 SPF)
Bit depth : 16 bits
Compression mode : Lossy
Stream size : 87.4 MiB (12%)
Language : English
Service kind : Complete Main
Default : Yes
Forced : No

Audio #2
ID : 3
Format : AC-3
Format/Info : Audio Coding 3
Format settings, Endianness : Big
Codec ID : A_AC3
Duration : 27 min 15 s
Bit rate mode : Constant
Bit rate : 192 kb/s
Channel(s) : 2 channels
Channel positions : Front: L R
Sampling rate : 48.0 kHz
Frame rate : 31.250 FPS (1536 SPF)
Bit depth : 16 bits
Compression mode : Lossy
Stream size : 37.4 MiB (5%)
Title : Commentary
Language : English
Service kind : Complete Main
Default : No
Forced : No

Text
ID : 4
Format : PGS
Codec ID : S_HDMV/PGS
Codec ID/Info : Picture based subtitle format used on BDs/HD-DVDs
Duration : 27 min 1 s
Bit rate : 36.0 kb/s
Count of elements : 946
Stream size : 6.95 MiB (1%)
Title : SDH
Language : English
Default : No
Forced : No

Menu
00:00:00.000 : en:Chapter 1
00:12:43.972 : en:Chapter 2
00:21:42.134 : en:Chapter 3
00:26:13.405 : en:Chapter 4





Ash vs Evil Dead S03E08


Ash vs Evil Dead S03E08


Ash vs Evil Dead S03E08


Ash vs Evil Dead S03E08


Ash vs Evil Dead S03E08

All episodes