Ash vs Evil Dead S03E10

Posted By: Tavaz
SD / WEBRip IMDb
Ash vs Evil Dead S03E10

Ash vs Evil Dead S03E10
WEBRip | MKV | 720x480 | German | H264 @ 870 kbps | AC-3 @ 384 kbps | 29 min 30 s | 265 MiB
Subtitles: English
Genre: Action, Komödie, Fantasy, Horror

Fast drei Jahrzehnte sind seit Kettensägenmassakern, Necronomicon und Splatterfun ins Land gezogen - jetzt ist es an der Zeit für Ash, den legendären Helden aus Sam Raimis "Tanz der Teufel"-Trilogie, die Kettensäge wieder zu entstauben. Denn abermals dringt das unsagbar Böse in Gestalt zahlloser Dämonen in unsere Welt und stellt unsere bisherige Vorstellung von blutleeren Horror-Serien vollkommen auf den Kopf.

S03E010 German.mkv (265.3 MB)



General
Unique ID : 178025834615361435026165087713522860316 (0x85EE8750C226AB78B3B7F786C457C11C)
Complete name : ./Die Teufel tanzen wieder S03E10 German/S03E010 German.mkv
Format : Matroska
Format version : Version 4 / Version 2
File size : 265 MiB
Duration : 29 min 30 s
Overall bit rate mode : Variable
Overall bit rate : 1 257 kb/s
Encoded date : UTC 2018-04-30 16:18:39
Writing application : mkvmerge v8.3.0 ('Over the Horizon') 64bit
Writing library : libebml v1.3.1 + libmatroska v1.4.2

Video
ID : 1
Format : AVC
Format/Info : Advanced Video Codec
Format profile : High@L3
Format settings : CABAC / 5 Ref Frames
Format settings, CABAC : Yes
Format settings, RefFrames : 5 frames
Codec ID : V_MPEG4/ISO/AVC
Duration : 29 min 30 s
Bit rate mode : Variable
Bit rate : 871 kb/s
Maximum bit rate : 2 400 kb/s
Width : 720 pixels
Height : 480 pixels
Display aspect ratio : 16:9
Frame rate mode : Constant
Frame rate : 23.976 (24000/1001) FPS
Color space : YUV
Chroma subsampling : 4:2:0
Bit depth : 8 bits
Scan type : Progressive
Bits/(Pixel*Frame) : 0.105
Stream size : 184 MiB (69%)
Language : English
Default : Yes
Forced : No
Color range : Limited
Color primaries : BT.709
Transfer characteristics : BT.709
Matrix coefficients : BT.709

Audio
ID : 2
Format : AC-3
Format/Info : Audio Coding 3
Format settings, Endianness : Big
Codec ID : A_AC3
Duration : 29 min 30 s
Bit rate mode : Constant
Bit rate : 384 kb/s
Channel(s) : 6 channels
Channel positions : Front: L C R, Side: L R, LFE
Sampling rate : 48.0 kHz
Frame rate : 31.250 FPS (1536 SPF)
Bit depth : 16 bits
Compression mode : Lossy
Stream size : 81.1 MiB (31%)
Language : German
Service kind : Complete Main
Default : Yes
Forced : No

Text #1
ID : 3
Format : UTF-8
Codec ID : S_TEXT/UTF8
Codec ID/Info : UTF-8 Plain Text
Duration : 28 min 23 s
Bit rate : 46 b/s
Count of elements : 436
Stream size : 9.71 KiB (0%)
Title : English
Language : English
Default : No
Forced : No

Text #2
ID : 4
Format : UTF-8
Codec ID : S_TEXT/UTF8
Codec ID/Info : UTF-8 Plain Text
Duration : 29 min 21 s
Bit rate : 64 b/s
Count of elements : 645
Stream size : 13.8 KiB (0%)
Title : English (SDH)
Language : English
Default : No
Forced : No





Ash vs Evil Dead S03E10


Ash vs Evil Dead S03E10


Ash vs Evil Dead S03E10


Ash vs Evil Dead S03E10


Ash vs Evil Dead S03E10

All episodes