Featured TV Shows


At Home with Amy Sedaris S03E01

Posted By: Tavaz
720p (HD) / WEBRip IMDb
At Home with Amy Sedaris S03E01

At Home with Amy Sedaris S03E01
WEBRip | MKV | 1280x720 | English | H264 @ 3303 kbps | AAC @ 125 kbps | 24 min 33 s | 603 MiB
Subtitles: English
Genre: Comedy


Comedian Amy Sedaris invites viewers into her home to show off her diverse homemaking skills.

492f43d851774bdd989c915f1a7c7083.mkv (602.9 MB)



General
Unique ID : 21952378820571824353487179779470838433 (0x1083DFD6D9B4B67F05C9D08BC000CAA1)
Complete name : ./492f43d851774bdd989c915f1a7c7083.mkv
Format : Matroska
Format version : Version 4 / Version 2
File size : 603 MiB
Duration : 24 min 33 s
Overall bit rate : 3 432 kb/s
Encoded date : UTC 2020-05-23 09:28:43
Writing application : mkvmerge v43.0.0 ('The Quartermaster') 64-bit
Writing library : libebml v1.3.10 + libmatroska v1.5.2

Video
ID : 1
Format : AVC
Format/Info : Advanced Video Codec
Format profile : High@L4.1
Format settings : CABAC / 8 Ref Frames
Format settings, CABAC : Yes
Format settings, RefFrames : 8 frames
Codec ID : V_MPEG4/ISO/AVC
Duration : 24 min 33 s
Bit rate : 3 304 kb/s
Width : 1 280 pixels
Height : 720 pixels
Display aspect ratio : 16:9
Frame rate mode : Constant
Frame rate : 23.976 (24000/1001) FPS
Color space : YUV
Chroma subsampling : 4:2:0
Bit depth : 8 bits
Scan type : Progressive
Bits/(Pixel*Frame) : 0.150
Stream size : 580 MiB (96%)
Writing library : x264 core 160 r3000 33f9e14
Encoding settings : cabac=1 / ref=8 / deblock=1:-3:-3 / analyse=0x3:0x133 / me=umh / subme=9 / psy=1 / psy_rd=1.00:0.00 / mixed_ref=1 / me_range=16 / chroma_me=1 / trellis=2 / 8x8dct=1 / cqm=0 / deadzone=21,11 / fast_pskip=0 / chroma_qp_offset=-2 / threads=18 / lookahead_threads=1 / sliced_threads=0 / nr=0 / decimate=1 / interlaced=0 / bluray_compat=0 / constrained_intra=0 / bframes=3 / b_pyramid=2 / b_adapt=2 / b_bias=0 / direct=3 / weightb=1 / open_gop=0 / weightp=2 / keyint=250 / keyint_min=23 / scenecut=40 / intra_refresh=0 / rc_lookahead=60 / rc=crf / mbtree=1 / crf=18.0 / qcomp=0.60 / qpmin=0 / qpmax=69 / qpstep=4 / ip_ratio=1.40 / aq=1:0.80
Language : English
Default : Yes
Forced : No
Color range : Limited
Matrix coefficients : BT.709

Audio
ID : 2
Format : AAC
Format/Info : Advanced Audio Codec
Format profile : LC
Codec ID : A_AAC-2
Duration : 24 min 33 s
Bit rate : 126 kb/s
Channel(s) : 2 channels
Channel positions : Front: L R
Sampling rate : 44.1 kHz
Frame rate : 43.066 FPS (1024 SPF)
Compression mode : Lossy
Stream size : 22.1 MiB (4%)
Language : English
Default : Yes
Forced : No

Text
ID : 3
Format : UTF-8
Codec ID : S_TEXT/UTF8
Codec ID/Info : UTF-8 Plain Text
Duration : 24 min 31 s
Bit rate : 110 b/s
Count of elements : 614
Stream size : 19.9 KiB (0%)
Language : English
Default : No
Forced : No





At Home with Amy Sedaris S03E01


At Home with Amy Sedaris S03E01


At Home with Amy Sedaris S03E01


At Home with Amy Sedaris S03E01


At Home with Amy Sedaris S03E01

All episodes