Featured TV Shows


Atlanta S01E02

Posted By: Tavaz
1080p (FullHD) / WEB-DL IMDb
Atlanta S01E02

Atlanta S01E02
WEB-DL | MKV | 1920x1080 | Italian / English | H264 @ 14755 kbps | AC-3 @ 384 kbps | 21 min 58 s | 2.38 GiB
Subtitles: English, Italian
Genre: Comedy

Two cousins, with different views on art versus commerce, on their way up through the Atlanta rap scene; Earnest 'Earn' Marks, an ambitious college dropout and his estranged cousin, who suddenly becomes a star.

Atlanta.1x02.Notorieta.ITA-ENG.1080p.WEBMux.DD5.1.x264-NovaRip.mkv (2.4 GB)



General
Unique ID : 56953775361253204288200061320866848730 (0x2AD8E5EC9880F5E82103171CD8905FDA)
Complete name : ./Atlanta.1x02.Notorieta.ITA-ENG.1080p.WEBMux.DD5.1.x264-NovaRip.mkv
Format : Matroska
Format version : Version 2
File size : 2.38 GiB
Duration : 21 min 58 s
Overall bit rate mode : Variable
Overall bit rate : 15.5 Mb/s
Encoded date : UTC 2018-05-27 08:50:42
Writing application : mkvmerge v8.5.2 ('Crosses') 64bit
Writing library : libebml v1.3.3 + libmatroska v1.4.4

Video
ID : 1
Format : AVC
Format/Info : Advanced Video Codec
Format profile : High@L4
Format settings : CABAC / 4 Ref Frames
Format settings, CABAC : Yes
Format settings, RefFrames : 4 frames
Codec ID : V_MPEG4/ISO/AVC
Duration : 21 min 58 s
Bit rate mode : Variable
Bit rate : 14.8 Mb/s
Maximum bit rate : 15.0 Mb/s
Width : 1 920 pixels
Height : 1 080 pixels
Display aspect ratio : 16:9
Frame rate mode : Constant
Frame rate : 25.000 FPS
Original frame rate : 23.976 (24000/1001) FPS
Color space : YUV
Chroma subsampling : 4:2:0
Bit depth : 8 bits
Scan type : Progressive
Bits/(Pixel*Frame) : 0.285
Stream size : 2.26 GiB (95%)
Language : English
Default : Yes
Forced : Yes
Color range : Limited
Color primaries : BT.709
Transfer characteristics : BT.709
Matrix coefficients : BT.709

Audio #1
ID : 2
Format : AC-3
Format/Info : Audio Coding 3
Format settings, Endianness : Big
Codec ID : A_AC3
Duration : 21 min 57 s
Bit rate mode : Constant
Bit rate : 384 kb/s
Channel(s) : 6 channels
Channel positions : Front: L C R, Side: L R, LFE
Sampling rate : 48.0 kHz
Frame rate : 31.250 FPS (1536 SPF)
Bit depth : 16 bits
Compression mode : Lossy
Stream size : 60.3 MiB (2%)
Title : ITA
Language : Italian
Service kind : Complete Main
Default : Yes
Forced : Yes

Audio #2
ID : 3
Format : AC-3
Format/Info : Audio Coding 3
Format settings, Endianness : Big
Codec ID : A_AC3
Duration : 21 min 57 s
Bit rate mode : Constant
Bit rate : 384 kb/s
Channel(s) : 6 channels
Channel positions : Front: L C R, Side: L R, LFE
Sampling rate : 48.0 kHz
Frame rate : 31.250 FPS (1536 SPF)
Bit depth : 16 bits
Compression mode : Lossy
Stream size : 60.3 MiB (2%)
Title : ENG
Language : English
Service kind : Complete Main
Default : No
Forced : No

Text #1
ID : 4
Format : UTF-8
Codec ID : S_TEXT/UTF8
Codec ID/Info : UTF-8 Plain Text
Duration : 2 s 609 ms
Bit rate : 33 b/s
Count of elements : 1
Stream size : 11.0 Bytes (0%)
Title : ITA - Forced
Language : Italian
Default : Yes
Forced : Yes

Text #2
ID : 5
Format : UTF-8
Codec ID : S_TEXT/UTF8
Codec ID/Info : UTF-8 Plain Text
Duration : 20 min 56 s
Bit rate : 81 b/s
Count of elements : 378
Stream size : 12.5 KiB (0%)
Title : ITA
Language : Italian
Default : No
Forced : No

Text #3
ID : 6
Format : UTF-8
Codec ID : S_TEXT/UTF8
Codec ID/Info : UTF-8 Plain Text
Duration : 21 min 39 s
Bit rate : 93 b/s
Count of elements : 530
Stream size : 14.9 KiB (0%)
Title : ENG
Language : English
Default : No
Forced : No





Atlanta S01E02


Atlanta S01E02


Atlanta S01E02


Atlanta S01E02


Atlanta S01E02

All episodes