Index
# A B C D E F G H I J K L M N O P Q R S T U V W Y Z
Tags
Language
Tags

Featured TV Shows


Attack on Titan S03E05

Posted By: Tavaz
Attack on Titan S03E05

Attack on Titan S03E05
MKV | 1920x1080 | English / Japanese | H265 @ 7235 kbps | TrueHD @ 1393 kbps | 23 min 57 s | 1.66 GiB
Subtitles: English
Genre: Animation, Drama


Several hundred years ago, humans were nearly exterminated by Titans. Titans are typically several stories tall, seem to have no intelligence, devour human beings and, worst of all, seem to do it for the pleasure rather than as a food source. A small percentage of humanity survived by walling themselves in a city protected by extremely high walls, even taller than the biggest Titans. Flash forward to the present and the city has not seen a Titan in over 100 years. Teenage boy Eren and his foster sister Mikasa witness something horrific as the city walls are destroyed by a Colossal Titan that appears out of thin air. As the smaller Titans flood the city, the two kids watch in horror as their mother is eaten alive. Eren vows that he will murder every single Titan and take revenge for all of mankind.

Attack.on.Titan.S03E05.1080p.Blu-Ray.10-Bit.Dual-Audio.TrueHD.x265-iAHD.mkv (1.7 GB)



General
Unique ID : 147109026033528676380026288461381598822 (0x6EAC2AF7167D8BB0DD82EB9631477E66)
Complete name : ./Attack.on.Titan.S03E05.1080p.Blu-Ray.10-Bit.Dual-Audio.TrueHD.x265-iAHD.mkv
Format : Matroska
Format version : Version 4 / Version 2
File size : 1.66 GiB
Duration : 23 min 57 s
Overall bit rate mode : Variable
Overall bit rate : 9 911 kb/s
Encoded date : UTC 2019-09-15 14:20:30
Writing application : mkvmerge v37.0.0 ('Leave It') 64-bit
Writing library : libebml v1.3.9 + libmatroska v1.5.2

Video
ID : 1
Format : HEVC
Format/Info : High Efficiency Video Coding
Format profile : Main 10@L5@Main
Codec ID : V_MPEGH/ISO/HEVC
Duration : 23 min 57 s
Bit rate : 7 235 kb/s
Width : 1 920 pixels
Height : 1 080 pixels
Display aspect ratio : 16:9
Frame rate mode : Constant
Frame rate : 23.976 (24000/1001) FPS
Color space : YUV
Chroma subsampling : 4:2:0
Bit depth : 10 bits
Bits/(Pixel*Frame) : 0.146
Stream size : 1.21 GiB (73%)
Writing library : x265 2.9:[Windows][GCC 8.2.0][64 bit] 10bit
Encoding settings : cpuid=1111039 / frame-threads=4 / numa-pools=16 / wpp / no-pmode / no-pme / no-psnr / no-ssim / log-level=2 / input-csp=1 / input-res=1920x1080 / interlace=0 / total-frames=0 / level-idc=0 / high-tier=1 / uhd-bd=0 / ref=6 / no-allow-non-conformance / no-repeat-headers / annexb / no-aud / no-hrd / info / hash=0 / no-temporal-layers / open-gop / min-keyint=24 / keyint=240 / gop-lookahead=0 / bframes=16 / b-adapt=2 / b-pyramid / bframe-bias=0 / rc-lookahead=50 / lookahead-slices=4 / scenecut=40 / radl=0 / no-intra-refresh / ctu=32 / min-cu-size=8 / rect / no-amp / max-tu-size=32 / tu-inter-depth=1 / tu-intra-depth=3 / limit-tu=0 / rdoq-level=2 / dynamic-rd=0.00 / no-ssim-rd / signhide / tskip / nr-intra=0 / nr-inter=0 / no-constrained-intra / strong-intra-smoothing / max-merge=3 / limit-refs=3 / limit-modes / me=3 / subme=3 / merange=57 / temporal-mvp / weightp / no-weightb / no-analyze-src-pics / deblock=0:0 / sao / no-sao-non-deblock / rd=4 / no-early-skip / rskip / no-fast-intra / tskip-fast / no-cu-lossless / no-b-intra / no-splitrd-skip / rdpenalty=0 / psy-rd=2.00 / psy-rdoq=1.00 / no-rd-refine / no-lossless / cbqpoffs=0 / crqpoffs=0 / rc=crf / crf=16.0 / qcomp=0.60 / qpstep=4 / stats-write=0 / stats-read=0 / ipratio=1.40 / pbratio=1.30 / aq-mode=3 / aq-strength=0.80 / cutree / zone-count=0 / no-strict-cbr / qg-size=32 / no-rc-grain / qpmax=69 / qpmin=0 / no-const-vbv / sar=1 / overscan=0 / videoformat=5 / range=0 / colorprim=1 / transfer=1 / colormatrix=1 / chromaloc=0 / display-window=0 / max-cll=0,0 / min-luma=0 / max-luma=1023 / log2-max-poc-lsb=8 / vui-timing-info / vui-hrd-info / slices=1 / no-opt-qp-pps / no-opt-ref-list-length-pps / no-multi-pass-opt-rps / scenecut-bias=0.05 / no-opt-cu-delta-qp / no-aq-motion / no-hdr / no-hdr-opt / no-dhdr10-opt / no-idr-recovery-sei / analysis-reuse-level=5 / scale-factor=0 / refine-intra=0 / refine-inter=0 / refine-mv=0 / no-limit-sao / ctu-info=0 / no-lowpass-dct / refine-mv-type=0 / copy-pic=1 / max-ausize-factor=1.0 / no-dynamic-refine / no-single-sei
Language : English
Default : Yes
Forced : No
Color range : Limited
Color primaries : BT.709
Transfer characteristics : BT.709
Matrix coefficients : BT.709

Audio #1
ID : 2
Format : TrueHD
Codec ID : A_TRUEHD
Duration : 23 min 57 s
Bit rate mode : Variable
Bit rate : 1 393 kb/s
Maximum bit rate : 2 511 kb/s
Channel(s) : 6 channels
Channel positions : Front: L C R, Side: L R, LFE
Sampling rate : 48.0 kHz
Frame rate : 1 200.000 FPS (40 SPF)
Compression mode : Lossless
Stream size : 239 MiB (14%)
Language : English
Default : Yes
Forced : No

Audio #2
ID : 3
Format : TrueHD
Codec ID : A_TRUEHD
Duration : 23 min 57 s
Bit rate mode : Variable
Bit rate : 1 141 kb/s
Maximum bit rate : 1 518 kb/s
Channel(s) : 2 channels
Channel positions : Front: C
Sampling rate : 48.0 kHz
Frame rate : 1 200.000 FPS (40 SPF)
Compression mode : Lossless
Stream size : 196 MiB (12%)
Language : Japanese
Default : No
Forced : No

Text
ID : 4
Format : PGS
Muxing mode : zlib
Codec ID : S_HDMV/PGS
Codec ID/Info : Picture based subtitle format used on BDs/HD-DVDs
Duration : 23 min 53 s
Bit rate : 45.3 kb/s
Count of elements : 574
Stream size : 7.75 MiB (0%)
Title : Dialogue
Language : English
Default : No
Forced : No

Menu
00:00:00.000 : en:Chapter 01
00:00:35.035 : en:Chapter 02
00:02:05.000 : en:Chapter 03
00:15:18.084 : en:Chapter 04
00:22:11.080 : en:Chapter 05
00:23:41.045 : en:Chapter 06





Attack on Titan S03E05


Attack on Titan S03E05


Attack on Titan S03E05


Attack on Titan S03E05


Attack on Titan S03E05

All episodes