Featured TV Shows


Band of Brothers S01E02

Posted By: Tavaz
1080p (FullHD) / BDRip IMDb
Band of Brothers S01E02

Band of Brothers S01E02
BDRip | MKV | 1920x1080 | English / French / German / Italian / Spanish | H265 @ 4859 kbps | DTS | 52 min 1 s | 3.53 GiB
Subtitles: German, Spanish, Italian, French, English
Genre: Drama

Drawn from interviews with survivors of Easy Company, as well as their journals and letters, Band of Brothers chronicles the experiences of these men from paratrooper training in Georgia through the end of the war. As an elite rifle company parachuting into Normandy early on D-Day morning, participants in the Battle of the Bulge, and witness to the horrors of war, the men of Easy knew extraordinary bravery and extraordinary fear - and became the stuff of legend. Based on Stephen E. Ambrose's acclaimed book of the same name.

40ee0e7e4e1643e0a4c1c389daf92331.mkv (3.5 GB)



General
Unique ID : 252080534769838137084881408516576816310 (0xBDA4F1ED8DD9805BADEEAC8ABB00ACB6)
Complete name : ./40ee0e7e4e1643e0a4c1c389daf92331.mkv
Format : Matroska
Format version : Version 2
File size : 3.53 GiB
Duration : 52 min 1 s
Overall bit rate : 9 724 kb/s
Movie name : BAND OF BROTHERS S01E02 Day of Days BluRay 10Bit 1080p Multi H265-d3g
Encoded date : UTC 2017-12-05 21:22:36
Writing application : DVDFab 10.0.6.8
Writing library : libebml v1.3.4 + libmatroska v1.4.5

Video
ID : 1
Format : HEVC
Format/Info : High Efficiency Video Coding
Format profile : Main 10@L4@Main
Codec ID : V_MPEGH/ISO/HEVC
Duration : 52 min 1 s
Bit rate : 4 859 kb/s
Width : 1 920 pixels
Height : 1 080 pixels
Display aspect ratio : 16:9
Frame rate mode : Constant
Frame rate : 23.976 (24000/1001) FPS
Color space : YUV
Chroma subsampling : 4:2:0
Bit depth : 10 bits
Bits/(Pixel*Frame) : 0.098
Stream size : 1.77 GiB (50%)
Default : Yes
Forced : No
Color range : Limited
Color primaries : BT.709
Transfer characteristics : BT.709
Matrix coefficients : BT.709

Audio #1
ID : 2
Format : DTS
Format/Info : Digital Theater Systems
Format profile : MA / Core
Mode : 16
Format settings, Endianness : Big
Codec ID : A_DTS
Duration : 51 min 59 s
Bit rate mode : Variable / Constant
Bit rate : 2 255 kb/s / 1 509 kb/s
Channel(s) : 6 channels
Channel positions : Front: L C R, Side: L R, LFE
Sampling rate : 48.0 kHz
Frame rate : 93.750 FPS (512 SPF)
Bit depth : 16 bits
Compression mode : Lossless / Lossy
Stream size : 839 MiB (23%)
Language : English
Default : Yes
Forced : No

Audio #2
ID : 3
Format : AC-3
Format/Info : Audio Coding 3
Format settings, Endianness : Big
Codec ID : A_AC3
Duration : 52 min 1 s
Bit rate mode : Constant
Bit rate : 640 kb/s
Channel(s) : 6 channels
Channel positions : Front: L C R, Side: L R, LFE
Sampling rate : 48.0 kHz
Frame rate : 31.250 FPS (1536 SPF)
Bit depth : 16 bits
Compression mode : Lossy
Stream size : 238 MiB (7%)
Language : French
Service kind : Complete Main
Default : No
Forced : No

Audio #3
ID : 4
Format : AC-3
Format/Info : Audio Coding 3
Format settings, Endianness : Big
Codec ID : A_AC3
Duration : 52 min 1 s
Bit rate mode : Constant
Bit rate : 640 kb/s
Channel(s) : 6 channels
Channel positions : Front: L C R, Side: L R, LFE
Sampling rate : 48.0 kHz
Frame rate : 31.250 FPS (1536 SPF)
Bit depth : 16 bits
Compression mode : Lossy
Stream size : 238 MiB (7%)
Language : German
Service kind : Complete Main
Default : No
Forced : No

Audio #4
ID : 5
Format : AC-3
Format/Info : Audio Coding 3
Format settings, Endianness : Big
Codec ID : A_AC3
Duration : 52 min 1 s
Bit rate mode : Constant
Bit rate : 640 kb/s
Channel(s) : 6 channels
Channel positions : Front: L C R, Side: L R, LFE
Sampling rate : 48.0 kHz
Frame rate : 31.250 FPS (1536 SPF)
Bit depth : 16 bits
Compression mode : Lossy
Stream size : 238 MiB (7%)
Language : Italian
Service kind : Complete Main
Default : No
Forced : No

Audio #5
ID : 6
Format : AC-3
Format/Info : Audio Coding 3
Format settings, Endianness : Big
Codec ID : A_AC3
Duration : 52 min 1 s
Bit rate mode : Constant
Bit rate : 640 kb/s
Channel(s) : 6 channels
Channel positions : Front: L C R, Side: L R, LFE
Sampling rate : 48.0 kHz
Frame rate : 31.250 FPS (1536 SPF)
Bit depth : 16 bits
Compression mode : Lossy
Stream size : 238 MiB (7%)
Language : Spanish
Service kind : Complete Main
Default : No
Forced : No

Text #1
ID : 7
Format : VobSub
Codec ID : S_VOBSUB
Codec ID/Info : Picture based subtitle format used on DVDs
Duration : 49 min 28 s
Bit rate : 8 348 b/s
Count of elements : 507
Stream size : 2.95 MiB (0%)
Language : English
Default : No
Forced : No

Text #2
ID : 8
Format : VobSub
Codec ID : S_VOBSUB
Codec ID/Info : Picture based subtitle format used on DVDs
Duration : 49 min 37 s
Bit rate : 6 908 b/s
Count of elements : 465
Stream size : 2.45 MiB (0%)
Language : French
Default : No
Forced : No

Text #3
ID : 9
Format : VobSub
Codec ID : S_VOBSUB
Codec ID/Info : Picture based subtitle format used on DVDs
Duration : 49 min 28 s
Bit rate : 7 671 b/s
Count of elements : 468
Stream size : 2.71 MiB (0%)
Language : German
Default : No
Forced : No

Text #4
ID : 10
Format : VobSub
Codec ID : S_VOBSUB
Codec ID/Info : Picture based subtitle format used on DVDs
Duration : 49 min 37 s
Bit rate : 7 140 b/s
Count of elements : 467
Stream size : 2.53 MiB (0%)
Language : Italian
Default : No
Forced : No

Text #5
ID : 11
Format : VobSub
Codec ID : S_VOBSUB
Codec ID/Info : Picture based subtitle format used on DVDs
Duration : 49 min 37 s
Bit rate : 6 704 b/s
Count of elements : 463
Stream size : 2.38 MiB (0%)
Language : Spanish
Default : No
Forced : No

Text #6
ID : 12
Format : VobSub
Codec ID : S_VOBSUB
Codec ID/Info : Picture based subtitle format used on DVDs
Duration : 166 ms
Bit rate : 2 120 b/s
Count of elements : 1
Stream size : 44.0 Bytes (0%)
Language : English
Default : No
Forced : No

Text #7
ID : 13
Format : VobSub
Codec ID : S_VOBSUB
Codec ID/Info : Picture based subtitle format used on DVDs
Duration : 49 min 28 s
Bit rate : 12.0 kb/s
Count of elements : 624
Stream size : 4.23 MiB (0%)
Language : English
Default : No
Forced : No

Menu
00:00:00.000 : en:(01)00:00:00:000
00:04:19.467 : en:(02)00:04:19:467
00:07:08.719 : en:(03)00:07:08:719
00:14:26.574 : en:(04)00:14:26:574
00:19:54.610 : en:(05)00:19:54:610
00:28:52.689 : en:(06)00:28:52:689
00:43:18.137 : en:(07)00:43:18:137
00:48:23.483 : en:(08)00:48:23:483
00:48:54.932 : en:(09)00:48:54:932





Band of Brothers S01E02


Band of Brothers S01E02


Band of Brothers S01E02


Band of Brothers S01E02


Band of Brothers S01E02

All episodes