Featured TV Shows


Band of Brothers S01E03

Posted By: Tavaz
1080p (FullHD) / BDRip IMDb
Band of Brothers S01E03

Band of Brothers S01E03
BDRip | MKV | 1920x1080 | English / French / German / Italian / Spanish | H265 @ 4924 kbps | DTS | 1 h 5 min | 4.46 GiB
Subtitles: German, Spanish, Italian, French, English
Genre: Drama

Drawn from interviews with survivors of Easy Company, as well as their journals and letters, Band of Brothers chronicles the experiences of these men from paratrooper training in Georgia through the end of the war. As an elite rifle company parachuting into Normandy early on D-Day morning, participants in the Battle of the Bulge, and witness to the horrors of war, the men of Easy knew extraordinary bravery and extraordinary fear - and became the stuff of legend. Based on Stephen E. Ambrose's acclaimed book of the same name.

cf26c49cfbf6496a89525c5cd56433db.mkv (4.5 GB)



General
Unique ID : 242620778616307838215705518304238603988 (0xB6870FF0B70A092EBB86FE860A698ED4)
Complete name : ./cf26c49cfbf6496a89525c5cd56433db.mkv
Format : Matroska
Format version : Version 2
File size : 4.46 GiB
Duration : 1 h 5 min
Overall bit rate : 9 769 kb/s
Movie name : BAND OF BROTHERS S01E03 Carentan BluRay 10Bit 1080p Multi H265-d3g
Encoded date : UTC 2017-12-05 22:07:17
Writing application : DVDFab 10.0.6.8
Writing library : libebml v1.3.4 + libmatroska v1.4.5

Video
ID : 1
Format : HEVC
Format/Info : High Efficiency Video Coding
Format profile : Main 10@L4@Main
Codec ID : V_MPEGH/ISO/HEVC
Duration : 1 h 5 min
Bit rate : 4 925 kb/s
Width : 1 920 pixels
Height : 1 080 pixels
Display aspect ratio : 16:9
Frame rate mode : Constant
Frame rate : 23.976 (24000/1001) FPS
Color space : YUV
Chroma subsampling : 4:2:0
Bit depth : 10 bits
Bits/(Pixel*Frame) : 0.099
Stream size : 2.25 GiB (50%)
Default : Yes
Forced : No
Color range : Limited
Color primaries : BT.709
Transfer characteristics : BT.709
Matrix coefficients : BT.709

Audio #1
ID : 2
Format : DTS
Format/Info : Digital Theater Systems
Format profile : MA / Core
Mode : 16
Format settings, Endianness : Big
Codec ID : A_DTS
Duration : 1 h 5 min
Bit rate mode : Variable / Constant
Bit rate : 2 232 kb/s / 1 509 kb/s
Channel(s) : 6 channels
Channel positions : Front: L C R, Side: L R, LFE
Sampling rate : 48.0 kHz
Frame rate : 93.750 FPS (512 SPF)
Bit depth : 16 bits
Compression mode : Lossless / Lossy
Stream size : 1.02 GiB (23%)
Language : English
Default : Yes
Forced : No

Audio #2
ID : 3
Format : AC-3
Format/Info : Audio Coding 3
Format settings, Endianness : Big
Codec ID : A_AC3
Duration : 1 h 5 min
Bit rate mode : Constant
Bit rate : 640 kb/s
Channel(s) : 6 channels
Channel positions : Front: L C R, Side: L R, LFE
Sampling rate : 48.0 kHz
Frame rate : 31.250 FPS (1536 SPF)
Bit depth : 16 bits
Compression mode : Lossy
Stream size : 299 MiB (7%)
Language : French
Service kind : Complete Main
Default : No
Forced : No

Audio #3
ID : 4
Format : AC-3
Format/Info : Audio Coding 3
Format settings, Endianness : Big
Codec ID : A_AC3
Duration : 1 h 5 min
Bit rate mode : Constant
Bit rate : 640 kb/s
Channel(s) : 6 channels
Channel positions : Front: L C R, Side: L R, LFE
Sampling rate : 48.0 kHz
Frame rate : 31.250 FPS (1536 SPF)
Bit depth : 16 bits
Compression mode : Lossy
Stream size : 299 MiB (7%)
Language : German
Service kind : Complete Main
Default : No
Forced : No

Audio #4
ID : 5
Format : AC-3
Format/Info : Audio Coding 3
Format settings, Endianness : Big
Codec ID : A_AC3
Duration : 1 h 5 min
Bit rate mode : Constant
Bit rate : 640 kb/s
Channel(s) : 6 channels
Channel positions : Front: L C R, Side: L R, LFE
Sampling rate : 48.0 kHz
Frame rate : 31.250 FPS (1536 SPF)
Bit depth : 16 bits
Compression mode : Lossy
Stream size : 299 MiB (7%)
Language : Italian
Service kind : Complete Main
Default : No
Forced : No

Audio #5
ID : 6
Format : AC-3
Format/Info : Audio Coding 3
Format settings, Endianness : Big
Codec ID : A_AC3
Duration : 1 h 5 min
Bit rate mode : Constant
Bit rate : 640 kb/s
Channel(s) : 6 channels
Channel positions : Front: L C R, Side: L R, LFE
Sampling rate : 48.0 kHz
Frame rate : 31.250 FPS (1536 SPF)
Bit depth : 16 bits
Compression mode : Lossy
Stream size : 299 MiB (7%)
Language : Spanish
Service kind : Complete Main
Default : No
Forced : No

Text #1
ID : 7
Format : VobSub
Codec ID : S_VOBSUB
Codec ID/Info : Picture based subtitle format used on DVDs
Duration : 1 h 2 min
Bit rate : 8 421 b/s
Count of elements : 674
Stream size : 3.78 MiB (0%)
Language : English
Default : No
Forced : No

Text #2
ID : 8
Format : VobSub
Codec ID : S_VOBSUB
Codec ID/Info : Picture based subtitle format used on DVDs
Duration : 1 h 2 min
Bit rate : 7 189 b/s
Count of elements : 617
Stream size : 3.24 MiB (0%)
Language : French
Default : No
Forced : No

Text #3
ID : 9
Format : VobSub
Codec ID : S_VOBSUB
Codec ID/Info : Picture based subtitle format used on DVDs
Duration : 1 h 2 min
Bit rate : 7 901 b/s
Count of elements : 622
Stream size : 3.55 MiB (0%)
Language : German
Default : No
Forced : No

Text #4
ID : 10
Format : VobSub
Codec ID : S_VOBSUB
Codec ID/Info : Picture based subtitle format used on DVDs
Duration : 1 h 2 min
Bit rate : 7 399 b/s
Count of elements : 628
Stream size : 3.33 MiB (0%)
Language : Italian
Default : No
Forced : No

Text #5
ID : 11
Format : VobSub
Codec ID : S_VOBSUB
Codec ID/Info : Picture based subtitle format used on DVDs
Duration : 1 h 2 min
Bit rate : 7 223 b/s
Count of elements : 618
Stream size : 3.25 MiB (0%)
Language : Spanish
Default : No
Forced : No

Text #6
ID : 12
Format : VobSub
Codec ID : S_VOBSUB
Codec ID/Info : Picture based subtitle format used on DVDs
Duration : 1 h 2 min
Bit rate : 11.3 kb/s
Count of elements : 774
Stream size : 5.08 MiB (0%)
Language : English
Default : No
Forced : No

Menu
00:00:00.000 : en:(01)00:00:00:000
00:02:30.150 : en:(02)00:02:30:150
00:03:26.748 : en:(03)00:03:26:748
00:11:57.383 : en:(04)00:11:57:383
00:22:19.046 : en:(05)00:22:19:046
00:29:06.995 : en:(06)00:29:06:995
00:38:34.854 : en:(07)00:38:34:854
00:50:33.488 : en:(08)00:50:33:488
01:01:58.131 : en:(09)01:01:58:131
01:02:15.148 : en:(10)01:02:15:148





Band of Brothers S01E03


Band of Brothers S01E03


Band of Brothers S01E03


Band of Brothers S01E03


Band of Brothers S01E03

All episodes