Featured TV Shows


Band of Brothers S01E06

Posted By: Tavaz
1080p (FullHD) / BDRip IMDb
Band of Brothers S01E06

Band of Brothers S01E06
BDRip | MKV | 1920x1080 | English / French / German / Italian / Spanish | H265 @ 4945 kbps | DTS | 1 h 7 min | 4.56 GiB
Subtitles: German, Spanish, Italian, French, English
Genre: Drama

Drawn from interviews with survivors of Easy Company, as well as their journals and letters, Band of Brothers chronicles the experiences of these men from paratrooper training in Georgia through the end of the war. As an elite rifle company parachuting into Normandy early on D-Day morning, participants in the Battle of the Bulge, and witness to the horrors of war, the men of Easy knew extraordinary bravery and extraordinary fear - and became the stuff of legend. Based on Stephen E. Ambrose's acclaimed book of the same name.

669caf15c9a84873ace4ece692925603.mkv (4.6 GB)



General
Unique ID : 236254393240237849129303399306337559374 (0xB1BCF0E83913D328B947662E3E5DA34E)
Complete name : ./669caf15c9a84873ace4ece692925603.mkv
Format : Matroska
Format version : Version 2
File size : 4.56 GiB
Duration : 1 h 7 min
Overall bit rate : 9 700 kb/s
Movie name : BAND OF BROTHERS S01E06 Bastogne BluRay 10Bit 1080p Multi H265-d3g
Encoded date : UTC 2017-12-05 22:53:17
Writing application : DVDFab 10.0.6.8
Writing library : libebml v1.3.4 + libmatroska v1.4.5

Video
ID : 1
Format : HEVC
Format/Info : High Efficiency Video Coding
Format profile : Main 10@L4@Main
Codec ID : V_MPEGH/ISO/HEVC
Duration : 1 h 7 min
Bit rate : 4 946 kb/s
Width : 1 920 pixels
Height : 1 080 pixels
Display aspect ratio : 16:9
Frame rate mode : Constant
Frame rate : 23.976 (24000/1001) FPS
Color space : YUV
Chroma subsampling : 4:2:0
Bit depth : 10 bits
Bits/(Pixel*Frame) : 0.099
Stream size : 2.33 GiB (51%)
Default : Yes
Forced : No
Color range : Limited
Color primaries : BT.709
Transfer characteristics : BT.709
Matrix coefficients : BT.709

Audio #1
ID : 2
Format : DTS
Format/Info : Digital Theater Systems
Format profile : MA / Core
Mode : 16
Format settings, Endianness : Big
Codec ID : A_DTS
Duration : 1 h 7 min
Bit rate mode : Variable / Constant
Bit rate : 2 152 kb/s / 1 509 kb/s
Channel(s) : 6 channels
Channel positions : Front: L C R, Side: L R, LFE
Sampling rate : 48.0 kHz
Frame rate : 93.750 FPS (512 SPF)
Bit depth : 16 bits
Compression mode : Lossless / Lossy
Stream size : 1.01 GiB (22%)
Language : English
Default : Yes
Forced : No

Audio #2
ID : 3
Format : AC-3
Format/Info : Audio Coding 3
Format settings, Endianness : Big
Codec ID : A_AC3
Duration : 1 h 7 min
Bit rate mode : Constant
Bit rate : 640 kb/s
Channel(s) : 6 channels
Channel positions : Front: L C R, Side: L R, LFE
Sampling rate : 48.0 kHz
Frame rate : 31.250 FPS (1536 SPF)
Bit depth : 16 bits
Compression mode : Lossy
Stream size : 308 MiB (7%)
Language : French
Service kind : Complete Main
Default : No
Forced : No

Audio #3
ID : 4
Format : AC-3
Format/Info : Audio Coding 3
Format settings, Endianness : Big
Codec ID : A_AC3
Duration : 1 h 7 min
Bit rate mode : Constant
Bit rate : 640 kb/s
Channel(s) : 6 channels
Channel positions : Front: L C R, Side: L R, LFE
Sampling rate : 48.0 kHz
Frame rate : 31.250 FPS (1536 SPF)
Bit depth : 16 bits
Compression mode : Lossy
Stream size : 308 MiB (7%)
Language : German
Service kind : Complete Main
Default : No
Forced : No

Audio #4
ID : 5
Format : AC-3
Format/Info : Audio Coding 3
Format settings, Endianness : Big
Codec ID : A_AC3
Duration : 1 h 7 min
Bit rate mode : Constant
Bit rate : 640 kb/s
Channel(s) : 6 channels
Channel positions : Front: L C R, Side: L R, LFE
Sampling rate : 48.0 kHz
Frame rate : 31.250 FPS (1536 SPF)
Bit depth : 16 bits
Compression mode : Lossy
Stream size : 308 MiB (7%)
Language : Italian
Service kind : Complete Main
Default : No
Forced : No

Audio #5
ID : 6
Format : AC-3
Format/Info : Audio Coding 3
Format settings, Endianness : Big
Codec ID : A_AC3
Duration : 1 h 7 min
Bit rate mode : Constant
Bit rate : 640 kb/s
Channel(s) : 6 channels
Channel positions : Front: L C R, Side: L R, LFE
Sampling rate : 48.0 kHz
Frame rate : 31.250 FPS (1536 SPF)
Bit depth : 16 bits
Compression mode : Lossy
Stream size : 308 MiB (7%)
Language : Spanish
Service kind : Complete Main
Default : No
Forced : No

Text #1
ID : 7
Format : VobSub
Codec ID : S_VOBSUB
Codec ID/Info : Picture based subtitle format used on DVDs
Duration : 1 h 4 min
Bit rate : 8 192 b/s
Count of elements : 601
Stream size : 3.79 MiB (0%)
Language : English
Default : No
Forced : No

Text #2
ID : 8
Format : VobSub
Codec ID : S_VOBSUB
Codec ID/Info : Picture based subtitle format used on DVDs
Duration : 1 h 4 min
Bit rate : 6 039 b/s
Count of elements : 505
Stream size : 2.80 MiB (0%)
Language : French
Default : No
Forced : No

Text #3
ID : 9
Format : VobSub
Codec ID : S_VOBSUB
Codec ID/Info : Picture based subtitle format used on DVDs
Duration : 1 h 4 min
Bit rate : 7 176 b/s
Count of elements : 537
Stream size : 3.32 MiB (0%)
Language : German
Default : No
Forced : No

Text #4
ID : 10
Format : VobSub
Codec ID : S_VOBSUB
Codec ID/Info : Picture based subtitle format used on DVDs
Duration : 1 h 4 min
Bit rate : 6 407 b/s
Count of elements : 515
Stream size : 2.97 MiB (0%)
Language : Italian
Default : No
Forced : No

Text #5
ID : 11
Format : VobSub
Codec ID : S_VOBSUB
Codec ID/Info : Picture based subtitle format used on DVDs
Duration : 1 h 4 min
Bit rate : 6 404 b/s
Count of elements : 509
Stream size : 2.97 MiB (0%)
Language : Spanish
Default : No
Forced : No

Text #6
ID : 12
Format : VobSub
Codec ID : S_VOBSUB
Codec ID/Info : Picture based subtitle format used on DVDs
Duration : 1 h 4 min
Bit rate : 11.1 kb/s
Count of elements : 753
Stream size : 5.13 MiB (0%)
Language : English
Default : No
Forced : No

Menu
00:00:00.000 : en:(01)00:00:00:000
00:02:30.150 : en:(02)00:02:30:150
00:03:46.226 : en:(03)00:03:46:226
00:09:23.437 : en:(04)00:09:23:437
00:20:38.987 : en:(05)00:20:38:987
00:32:05.256 : en:(06)00:32:05:256
00:44:04.892 : en:(07)00:44:04:892
00:52:37.696 : en:(08)00:52:37:696
01:03:34.018 : en:(09)01:03:34:018
01:04:07.051 : en:(10)01:04:07:051





Band of Brothers S01E06


Band of Brothers S01E06


Band of Brothers S01E06


Band of Brothers S01E06


Band of Brothers S01E06

All episodes