Featured TV Shows


Band of Brothers S01E07

Posted By: Tavaz
1080p (FullHD) / BDRip IMDb
Band of Brothers S01E07

Band of Brothers S01E07
BDRip | MKV | 1920x1080 | English / French / German / Italian / Spanish | H265 @ 4900 kbps | DTS | 1 h 12 min | 4.94 GiB
Subtitles: German, Spanish, Italian, French, English
Genre: Drama

Drawn from interviews with survivors of Easy Company, as well as their journals and letters, Band of Brothers chronicles the experiences of these men from paratrooper training in Georgia through the end of the war. As an elite rifle company parachuting into Normandy early on D-Day morning, participants in the Battle of the Bulge, and witness to the horrors of war, the men of Easy knew extraordinary bravery and extraordinary fear - and became the stuff of legend. Based on Stephen E. Ambrose's acclaimed book of the same name.

6b62a0d9400a45318b851af718f49cd9.mkv (4.9 GB)



General
Unique ID : 174613097786972148847091070486898869883 (0x835D4266238957DABE6791BF797D067B)
Complete name : ./6b62a0d9400a45318b851af718f49cd9.mkv
Format : Matroska
Format version : Version 2
File size : 4.94 GiB
Duration : 1 h 12 min
Overall bit rate : 9 708 kb/s
Movie name : BAND OF BROTHERS S01E07 The Breaking Point 10Bit 1080p Multi H265-d3g
Encoded date : UTC 2017-12-05 23:57:03
Writing application : DVDFab 10.0.6.8
Writing library : libebml v1.3.4 + libmatroska v1.4.5

Video
ID : 1
Format : HEVC
Format/Info : High Efficiency Video Coding
Format profile : Main 10@L4@Main
Codec ID : V_MPEGH/ISO/HEVC
Duration : 1 h 12 min
Bit rate : 4 901 kb/s
Width : 1 920 pixels
Height : 1 080 pixels
Display aspect ratio : 16:9
Frame rate mode : Constant
Frame rate : 23.976 (24000/1001) FPS
Color space : YUV
Chroma subsampling : 4:2:0
Bit depth : 10 bits
Bits/(Pixel*Frame) : 0.099
Stream size : 2.49 GiB (50%)
Default : Yes
Forced : No
Color range : Limited
Color primaries : BT.709
Transfer characteristics : BT.709
Matrix coefficients : BT.709

Audio #1
ID : 2
Format : DTS
Format/Info : Digital Theater Systems
Format profile : MA / Core
Mode : 16
Format settings, Endianness : Big
Codec ID : A_DTS
Duration : 1 h 12 min
Bit rate mode : Variable / Constant
Bit rate : 2 179 kb/s / 1 509 kb/s
Channel(s) : 6 channels
Channel positions : Front: L C R, Side: L R, LFE
Sampling rate : 48.0 kHz
Frame rate : 93.750 FPS (512 SPF)
Bit depth : 16 bits
Compression mode : Lossless / Lossy
Stream size : 1.11 GiB (22%)
Language : English
Default : Yes
Forced : No

Audio #2
ID : 3
Format : AC-3
Format/Info : Audio Coding 3
Format settings, Endianness : Big
Codec ID : A_AC3
Duration : 1 h 12 min
Bit rate mode : Constant
Bit rate : 640 kb/s
Channel(s) : 6 channels
Channel positions : Front: L C R, Side: L R, LFE
Sampling rate : 48.0 kHz
Frame rate : 31.250 FPS (1536 SPF)
Bit depth : 16 bits
Compression mode : Lossy
Stream size : 333 MiB (7%)
Language : French
Service kind : Complete Main
Default : No
Forced : No

Audio #3
ID : 4
Format : AC-3
Format/Info : Audio Coding 3
Format settings, Endianness : Big
Codec ID : A_AC3
Duration : 1 h 12 min
Bit rate mode : Constant
Bit rate : 640 kb/s
Channel(s) : 6 channels
Channel positions : Front: L C R, Side: L R, LFE
Sampling rate : 48.0 kHz
Frame rate : 31.250 FPS (1536 SPF)
Bit depth : 16 bits
Compression mode : Lossy
Stream size : 333 MiB (7%)
Language : German
Service kind : Complete Main
Default : No
Forced : No

Audio #4
ID : 5
Format : AC-3
Format/Info : Audio Coding 3
Format settings, Endianness : Big
Codec ID : A_AC3
Duration : 1 h 12 min
Bit rate mode : Constant
Bit rate : 640 kb/s
Channel(s) : 6 channels
Channel positions : Front: L C R, Side: L R, LFE
Sampling rate : 48.0 kHz
Frame rate : 31.250 FPS (1536 SPF)
Bit depth : 16 bits
Compression mode : Lossy
Stream size : 333 MiB (7%)
Language : Italian
Service kind : Complete Main
Default : No
Forced : No

Audio #5
ID : 6
Format : AC-3
Format/Info : Audio Coding 3
Format settings, Endianness : Big
Codec ID : A_AC3
Duration : 1 h 12 min
Bit rate mode : Constant
Bit rate : 640 kb/s
Channel(s) : 6 channels
Channel positions : Front: L C R, Side: L R, LFE
Sampling rate : 48.0 kHz
Frame rate : 31.250 FPS (1536 SPF)
Bit depth : 16 bits
Compression mode : Lossy
Stream size : 333 MiB (7%)
Language : Spanish
Service kind : Complete Main
Default : No
Forced : No

Text #1
ID : 7
Format : VobSub
Codec ID : S_VOBSUB
Codec ID/Info : Picture based subtitle format used on DVDs
Duration : 1 h 12 min
Bit rate : 11.9 kb/s
Count of elements : 856
Stream size : 6.18 MiB (0%)
Language : English
Default : No
Forced : No

Text #2
ID : 8
Format : VobSub
Codec ID : S_VOBSUB
Codec ID/Info : Picture based subtitle format used on DVDs
Duration : 1 h 12 min
Bit rate : 9 633 b/s
Count of elements : 776
Stream size : 5.01 MiB (0%)
Language : French
Default : No
Forced : No

Text #3
ID : 9
Format : VobSub
Codec ID : S_VOBSUB
Codec ID/Info : Picture based subtitle format used on DVDs
Duration : 1 h 12 min
Bit rate : 10.7 kb/s
Count of elements : 790
Stream size : 5.55 MiB (0%)
Language : German
Default : No
Forced : No

Text #4
ID : 10
Format : VobSub
Codec ID : S_VOBSUB
Codec ID/Info : Picture based subtitle format used on DVDs
Duration : 1 h 12 min
Bit rate : 9 855 b/s
Count of elements : 780
Stream size : 5.12 MiB (0%)
Language : Italian
Default : No
Forced : No

Text #5
ID : 11
Format : VobSub
Codec ID : S_VOBSUB
Codec ID/Info : Picture based subtitle format used on DVDs
Duration : 1 h 12 min
Bit rate : 8 275 b/s
Count of elements : 779
Stream size : 4.30 MiB (0%)
Language : Spanish
Default : No
Forced : No

Text #6
ID : 12
Format : VobSub
Codec ID : S_VOBSUB
Codec ID/Info : Picture based subtitle format used on DVDs
Duration : 1 h 12 min
Bit rate : 13.9 kb/s
Count of elements : 961
Stream size : 7.21 MiB (0%)
Language : English
Default : No
Forced : No

Menu
00:00:00.000 : en:(01)00:00:00:000
00:03:52.857 : en:(02)00:03:52:857
00:11:16.384 : en:(03)00:11:16:384
00:22:01.320 : en:(04)00:22:01:320
00:31:06.906 : en:(05)00:31:06:906
00:40:01.190 : en:(06)00:40:01:190
00:51:51.441 : en:(07)00:51:51:441
01:09:09.145 : en:(08)01:09:09:145
01:09:44.180 : en:(09)01:09:44:180





Band of Brothers S01E07


Band of Brothers S01E07


Band of Brothers S01E07


Band of Brothers S01E07


Band of Brothers S01E07

All episodes