Featured TV Shows


Band of Brothers S01E09

Posted By: Tavaz
1080p (FullHD) / BDRip IMDb
Band of Brothers S01E09

Band of Brothers S01E09
BDRip | MKV | 1920x1080 | English / French / German / Italian / Spanish | H265 @ 4911 kbps | DTS | 58 min 11 s | 3.94 GiB
Subtitles: German, Spanish, Italian, French, English
Genre: Drama

Drawn from interviews with survivors of Easy Company, as well as their journals and letters, Band of Brothers chronicles the experiences of these men from paratrooper training in Georgia through the end of the war. As an elite rifle company parachuting into Normandy early on D-Day morning, participants in the Battle of the Bulge, and witness to the horrors of war, the men of Easy knew extraordinary bravery and extraordinary fear - and became the stuff of legend. Based on Stephen E. Ambrose's acclaimed book of the same name.

d88374d9384e46688f06ec88d9015d80.mkv (3.9 GB)



General
Unique ID : 242892918334446903720715234614705438138 (0xB6BB7976DD8850FDA725E3C17234BDBA)
Complete name : ./d88374d9384e46688f06ec88d9015d80.mkv
Format : Matroska
Format version : Version 2
File size : 3.94 GiB
Duration : 58 min 11 s
Overall bit rate : 9 688 kb/s
Movie name : BAND OF BROTHERS S01E09 Why We Fight BluRay 10Bit 1080p Multi H265-d3g
Encoded date : UTC 2017-12-06 01:11:58
Writing application : DVDFab 10.0.6.8
Writing library : libebml v1.3.4 + libmatroska v1.4.5

Video
ID : 1
Format : HEVC
Format/Info : High Efficiency Video Coding
Format profile : Main 10@L4@Main
Codec ID : V_MPEGH/ISO/HEVC
Duration : 58 min 11 s
Bit rate : 4 911 kb/s
Width : 1 920 pixels
Height : 1 080 pixels
Display aspect ratio : 16:9
Frame rate mode : Constant
Frame rate : 23.976 (24000/1001) FPS
Color space : YUV
Chroma subsampling : 4:2:0
Bit depth : 10 bits
Bits/(Pixel*Frame) : 0.099
Stream size : 2.00 GiB (51%)
Default : Yes
Forced : No
Color range : Limited
Color primaries : BT.709
Transfer characteristics : BT.709
Matrix coefficients : BT.709

Audio #1
ID : 2
Format : DTS
Format/Info : Digital Theater Systems
Format profile : MA / Core
Mode : 16
Format settings, Endianness : Big
Codec ID : A_DTS
Duration : 58 min 9 s
Bit rate mode : Variable / Constant
Bit rate : 2 172 kb/s / 1 509 kb/s
Channel(s) : 6 channels
Channel positions : Front: L C R, Side: L R, LFE
Sampling rate : 48.0 kHz
Frame rate : 93.750 FPS (512 SPF)
Bit depth : 16 bits
Compression mode : Lossless / Lossy
Stream size : 904 MiB (22%)
Language : English
Default : Yes
Forced : No

Audio #2
ID : 3
Format : AC-3
Format/Info : Audio Coding 3
Format settings, Endianness : Big
Codec ID : A_AC3
Duration : 58 min 11 s
Bit rate mode : Constant
Bit rate : 640 kb/s
Channel(s) : 6 channels
Channel positions : Front: L C R, Side: L R, LFE
Sampling rate : 48.0 kHz
Frame rate : 31.250 FPS (1536 SPF)
Bit depth : 16 bits
Compression mode : Lossy
Stream size : 266 MiB (7%)
Language : French
Service kind : Complete Main
Default : No
Forced : No

Audio #3
ID : 4
Format : AC-3
Format/Info : Audio Coding 3
Format settings, Endianness : Big
Codec ID : A_AC3
Duration : 58 min 11 s
Bit rate mode : Constant
Bit rate : 640 kb/s
Channel(s) : 6 channels
Channel positions : Front: L C R, Side: L R, LFE
Sampling rate : 48.0 kHz
Frame rate : 31.250 FPS (1536 SPF)
Bit depth : 16 bits
Compression mode : Lossy
Stream size : 266 MiB (7%)
Language : German
Service kind : Complete Main
Default : No
Forced : No

Audio #4
ID : 5
Format : AC-3
Format/Info : Audio Coding 3
Format settings, Endianness : Big
Codec ID : A_AC3
Duration : 58 min 11 s
Bit rate mode : Constant
Bit rate : 640 kb/s
Channel(s) : 6 channels
Channel positions : Front: L C R, Side: L R, LFE
Sampling rate : 48.0 kHz
Frame rate : 31.250 FPS (1536 SPF)
Bit depth : 16 bits
Compression mode : Lossy
Stream size : 266 MiB (7%)
Language : Italian
Service kind : Complete Main
Default : No
Forced : No

Audio #5
ID : 6
Format : AC-3
Format/Info : Audio Coding 3
Format settings, Endianness : Big
Codec ID : A_AC3
Duration : 58 min 11 s
Bit rate mode : Constant
Bit rate : 640 kb/s
Channel(s) : 6 channels
Channel positions : Front: L C R, Side: L R, LFE
Sampling rate : 48.0 kHz
Frame rate : 31.250 FPS (1536 SPF)
Bit depth : 16 bits
Compression mode : Lossy
Stream size : 266 MiB (7%)
Language : Spanish
Service kind : Complete Main
Default : No
Forced : No

Text #1
ID : 7
Format : VobSub
Codec ID : S_VOBSUB
Codec ID/Info : Picture based subtitle format used on DVDs
Duration : 58 min 0 s
Bit rate : 7 903 b/s
Count of elements : 512
Stream size : 3.28 MiB (0%)
Language : English
Default : No
Forced : No

Text #2
ID : 8
Format : VobSub
Codec ID : S_VOBSUB
Codec ID/Info : Picture based subtitle format used on DVDs
Duration : 58 min 0 s
Bit rate : 6 125 b/s
Count of elements : 426
Stream size : 2.54 MiB (0%)
Language : French
Default : No
Forced : No

Text #3
ID : 9
Format : VobSub
Codec ID : S_VOBSUB
Codec ID/Info : Picture based subtitle format used on DVDs
Duration : 58 min 0 s
Bit rate : 6 395 b/s
Count of elements : 437
Stream size : 2.65 MiB (0%)
Language : German
Default : No
Forced : No

Text #4
ID : 10
Format : VobSub
Codec ID : S_VOBSUB
Codec ID/Info : Picture based subtitle format used on DVDs
Duration : 58 min 0 s
Bit rate : 5 901 b/s
Count of elements : 432
Stream size : 2.45 MiB (0%)
Language : Italian
Default : No
Forced : No

Text #5
ID : 11
Format : VobSub
Codec ID : S_VOBSUB
Codec ID/Info : Picture based subtitle format used on DVDs
Duration : 58 min 0 s
Bit rate : 5 208 b/s
Count of elements : 431
Stream size : 2.16 MiB (0%)
Language : Spanish
Default : No
Forced : No

Text #6
ID : 12
Format : VobSub
Codec ID : S_VOBSUB
Codec ID/Info : Picture based subtitle format used on DVDs
Duration : 58 min 0 s
Bit rate : 9 514 b/s
Count of elements : 591
Stream size : 3.95 MiB (0%)
Language : English
Default : No
Forced : No

Menu
00:00:00.000 : en:(01)00:00:00:000
00:03:33.421 : en:(02)00:03:33:421
00:10:09.692 : en:(03)00:10:09:692
00:20:11.418 : en:(04)00:20:11:418
00:30:06.304 : en:(05)00:30:06:304
00:35:51.190 : en:(06)00:35:51:190
00:45:32.521 : en:(07)00:45:32:521
00:54:30.517 : en:(08)00:54:30:517
00:55:02.299 : en:(09)00:55:02:299





Band of Brothers S01E09


Band of Brothers S01E09


Band of Brothers S01E09


Band of Brothers S01E09


Band of Brothers S01E09

All episodes