Index
# A B C D E F G H I J K L M N O P Q R S T U V W Y Z
Tags
Language
Tags

Featured TV Shows


Bäckström S01E04

Posted By:
720p (HD) / WEB-DL IMDb
Bäckström S01E04

Bäckström S01E04
WEB-DL | MKV | 1280x720 | Svenska | H264 @ 1214 kbps | AAC @ 128 kbps | 44 min 10 s | 425 MiB
Subtitles: Svenska, Dansk
Genre: Crime, Drama


Murder investigator Evert Bäckström is convinced that crimes have been committed when a women's cranium is found on an island in the archipelago. But his investigation is countered by the police chief and when the woman's identity is clarified, the entire investigation is turned upside down.

2d047b36dccb47a7ab8ca2806542e9e0.mkv (425.1 MB)



General
Unique ID : 146308853513278951888957386981112816079 (0x6E120F69FD454753C1BA1C66AF1021CF)
Complete name : ./2d047b36dccb47a7ab8ca2806542e9e0.mkv
Format : Matroska
Format version : Version 4 / Version 2
File size : 425 MiB
Duration : 44 min 10 s
Overall bit rate : 1 346 kb/s
Encoded date : UTC 2020-04-06 13:56:18
Writing application : mkvmerge v42.0.0 ('Overtime') 64-bit
Writing library : libebml v1.3.10 + libmatroska v1.5.2

Video
ID : 4
Format : AVC
Format/Info : Advanced Video Codec
Format profile : Main@L3.1
Format settings : CABAC / 4 Ref Frames
Format settings, CABAC : Yes
Format settings, RefFrames : 4 frames
Codec ID : V_MPEG4/ISO/AVC
Duration : 44 min 10 s
Bit rate : 1 215 kb/s
Nominal bit rate : 15.0 Mb/s
Width : 1 280 pixels
Height : 720 pixels
Display aspect ratio : 16:9
Frame rate mode : Constant
Frame rate : 25.000 FPS
Color space : YUV
Chroma subsampling : 4:2:0
Bit depth : 8 bits
Scan type : Progressive
Bits/(Pixel*Frame) : 0.053
Stream size : 384 MiB (90%)
Writing library : x264 core 148
Encoding settings : cabac=1 / ref=3 / deblock=1:0:0 / analyse=0x1:0x131 / me=hex / subme=10 / psy=0 / mixed_ref=1 / me_range=16 / chroma_me=1 / trellis=2 / 8x8dct=0 / cqm=0 / deadzone=21,11 / fast_pskip=1 / chroma_qp_offset=0 / threads=28 / lookahead_threads=2 / sliced_threads=0 / nr=0 / decimate=1 / interlaced=0 / paff=0 / bluray_compat=0 / constrained_intra=0 / bframes=3 / b_pyramid=2 / b_adapt=1 / b_bias=0 / direct=3 / weightb=1 / open_gop=0 / weightp=2 / keyint=250 / keyint_min=25 / scenecut=0 / intra_refresh=0 / rc_lookahead=40 / rc=cbr / mbtree=1 / bitrate=15000 / ratetol=1.0 / qcomp=0.60 / qpmin=0 / qpmax=69 / qpstep=4 / vbv_maxrate=15000 / vbv_bufsize=15000 / nal_hrd=cbr / filler=1 / ip_ratio=1.00 / aq=1:0.00
Language : English
Default : Yes
Forced : No
Color range : Limited
Color primaries : BT.709
Transfer characteristics : BT.709
Matrix coefficients : BT.709

Audio
ID : 5
Format : AAC
Format/Info : Advanced Audio Codec
Format profile : LC
Codec ID : A_AAC-2
Duration : 44 min 10 s
Bit rate : 128 kb/s
Channel(s) : 2 channels
Channel positions : Front: L R
Sampling rate : 48.0 kHz
Frame rate : 46.875 FPS (1024 SPF)
Compression mode : Lossy
Stream size : 40.5 MiB (10%)
Language : Swedish
Default : Yes
Forced : No

Text #1
ID : 1
Format : UTF-8
Codec ID : S_TEXT/UTF8
Codec ID/Info : UTF-8 Plain Text
Duration : 43 min 57 s
Bit rate : 56 b/s
Count of elements : 460
Stream size : 18.3 KiB (0%)
Language : Danish
Default : Yes
Forced : No

Text #2
ID : 2
Format : UTF-8
Codec ID : S_TEXT/UTF8
Codec ID/Info : UTF-8 Plain Text
Duration : 43 min 57 s
Bit rate : 58 b/s
Count of elements : 445
Stream size : 18.8 KiB (0%)
Language : Norwegian
Default : No
Forced : No

Text #3
ID : 3
Format : UTF-8
Codec ID : S_TEXT/UTF8
Codec ID/Info : UTF-8 Plain Text
Duration : 43 min 57 s
Bit rate : 60 b/s
Count of elements : 460
Stream size : 19.5 KiB (0%)
Language : Swedish
Default : No
Forced : No





Bäckström S01E04


Bäckström S01E04


Bäckström S01E04


Bäckström S01E04


Bäckström S01E04

All episodes