Index
# A B C D E F G H I J K L M N O P Q R S T U V W Y Z
Tags
Language
Tags

Featured TV Shows


Bäckström S01E02

Posted By:
720p (HD) / WEBRip IMDb
Bäckström S01E02

Bäckström S01E02
WEBRip | MKV | 1280x720 | Français | H264 @ 3149 kbps | AAC @ 96 kbps | 44 min 6 s | 1 019 MiB
Subtitles: Français
Genre: Крими, Драма


Murder investigator Evert Bäckström is convinced that crimes have been committed when a women's cranium is found on an island in the archipelago. But his investigation is countered by the police chief and when the woman's identity is clarified, the entire investigation is turned upside down.

backstrom.se.s01e02.french.720p.web.h264-freamon.mkv (1018.8 MB)



General
Unique ID : 109994208989017784064350716062844054146 (0x52C01D345AB5793A6CE2655642D7EA82)
Complete name : ./backstrom.se.s01e02.french.720p.web.h264-freamon.mkv
Format : Matroska
Format version : Version 4 / Version 2
File size : 1 019 MiB
Duration : 44 min 6 s
Overall bit rate : 3 230 kb/s
Encoded date : UTC 2021-03-21 10:26:54
Writing application : mkvmerge v55.0.0 ('Waiting For Space') 64-bit
Writing library : libebml v1.4.2 + libmatroska v1.6.4

Video
ID : 1
Format : AVC
Format/Info : Advanced Video Codec
Format profile : High@L3.1
Format settings : CABAC / 2 Ref Frames
Format settings, CABAC : Yes
Format settings, RefFrames : 2 frames
Codec ID : V_MPEG4/ISO/AVC
Duration : 44 min 6 s
Bit rate mode : Constant
Bit rate : 3 150 kb/s
Width : 1 280 pixels
Height : 720 pixels
Display aspect ratio : 16:9
Frame rate mode : Constant
Frame rate : 25.000 FPS
Standard : PAL
Color space : YUV
Chroma subsampling : 4:2:0
Bit depth : 8 bits
Scan type : Progressive
Bits/(Pixel*Frame) : 0.137
Stream size : 988 MiB (97%)
Default : Yes
Forced : No
Color range : Limited
Color primaries : BT.709
Transfer characteristics : BT.709
Matrix coefficients : BT.709

Audio
ID : 2
Format : AAC
Format/Info : Advanced Audio Codec
Format profile : LC
Codec ID : A_AAC-2
Duration : 44 min 6 s
Bit rate : 96.0 kb/s
Channel(s) : 2 channels
Channel positions : Front: L R
Sampling rate : 48.0 kHz
Frame rate : 46.875 FPS (1024 SPF)
Compression mode : Lossy
Stream size : 30.3 MiB (3%)
Title : French
Language : French
Default : Yes
Forced : No

Text
ID : 3
Format : UTF-8
Codec ID : S_TEXT/UTF8
Codec ID/Info : UTF-8 Plain Text
Duration : 43 min 55 s
Bit rate : 67 b/s
Count of elements : 746
Stream size : 21.6 KiB (0%)
Title : French
Language : French
Default : No
Forced : No





Bäckström S01E02


Bäckström S01E02


Bäckström S01E02


Bäckström S01E02


Bäckström S01E02

All episodes