Featured TV Shows


Band of Brothers S01E02

Posted By: Tavaz
1080p (FullHD) / HDTV IMDb
Band of Brothers S01E02

Band of Brothers S01E02
HDTV | MKV | 1920x1080 | English | H265 @ 2439 kbps | DTS | 52 min 1 s | 1.66 GiB
Subtitles: Japanese
Genre: Drama

Drawn from interviews with survivors of Easy Company, as well as their journals and letters, Band of Brothers chronicles the experiences of these men from paratrooper training in Georgia through the end of the war. As an elite rifle company parachuting into Normandy early on D-Day morning, participants in the Battle of the Bulge, and witness to the horrors of war, the men of Easy knew extraordinary bravery and extraordinary fear - and became the stuff of legend. Based on Stephen E. Ambrose's acclaimed book of the same name.

c3b4808b7e5c44a8b1944490c545b547.mkv (1.7 GB)



General
Unique ID : 182767046568161861857276201872190431137 (0x897FA71CCE27DD08A027570F4D195FA1)
Complete name : ./c3b4808b7e5c44a8b1944490c545b547.mkv
Format : Matroska
Format version : Version 4 / Version 2
File size : 1.66 GiB
Duration : 52 min 1 s
Overall bit rate : 4 558 kb/s
Movie name : BoB 02 Day of Days BluRay 1080p Dts-HD Ma5.1 HEVC-d3g
Encoded date : UTC 2017-02-17 02:43:08
Writing application : mkvmerge v9.5.0 ('Quiet Fire') 64bit
Writing library : libebml v1.3.4 + libmatroska v1.4.5

Video
ID : 1
Format : HEVC
Format/Info : High Efficiency Video Coding
Format profile : Main@L4@Main
Codec ID : V_MPEGH/ISO/HEVC
Duration : 52 min 0 s
Bit rate : 2 440 kb/s
Width : 1 920 pixels
Height : 1 080 pixels
Display aspect ratio : 16:9
Frame rate mode : Constant
Frame rate : 23.976 (24000/1001) FPS
Color space : YUV
Chroma subsampling : 4:2:0
Bit depth : 8 bits
Bits/(Pixel*Frame) : 0.049
Stream size : 907 MiB (54%)
Default : Yes
Forced : No

Audio
ID : 2
Format : DTS
Format/Info : Digital Theater Systems
Format profile : MA / Core
Mode : 16
Format settings, Endianness : Big
Codec ID : A_DTS
Duration : 52 min 1 s
Bit rate mode : Variable / Constant
Bit rate : 2 097 kb/s / 1 509 kb/s
Channel(s) : 6 channels
Channel positions : Front: L C R, Side: L R, LFE
Sampling rate : 48.0 kHz
Frame rate : 93.750 FPS (512 SPF)
Bit depth : 16 bits
Compression mode : Lossless / Lossy
Stream size : 780 MiB (46%)
Language : English
Default : Yes
Forced : No

Text #1
ID : 3
Format : VobSub
Muxing mode : zlib
Codec ID : S_VOBSUB
Codec ID/Info : Picture based subtitle format used on DVDs
Duration : 46 min 20 s
Bit rate : 20.8 kb/s
Count of elements : 1796
Stream size : 6.89 MiB (0%)
Language : Japanese
Default : Yes
Forced : No

Text #2
ID : 4
Format : UTF-8
Codec ID : S_TEXT/UTF8
Codec ID/Info : UTF-8 Plain Text
Duration : 45 min 24 s
Bit rate : 44 b/s
Count of elements : 450
Stream size : 14.7 KiB (0%)
Default : No
Forced : No

Menu
00:00:00.000 : en:Chapter 01
00:02:29.149 : en:Chapter 02
00:04:18.257 : en:Chapter 03
00:14:25.447 : en:Chapter 04
00:22:18.670 : en:Chapter 05
00:28:51.229 : en:Chapter 06
00:43:17.011 : en:Chapter 07
00:48:53.930 : en:Chapter 08
00:52:00.117 : en:Chapter 09





Band of Brothers S01E02


Band of Brothers S01E02


Band of Brothers S01E02


Band of Brothers S01E02


Band of Brothers S01E02

All episodes