Band of Brothers S01E04

Posted By: Tavaz
Band of Brothers S01E04

Band of Brothers S01E04
MOV | 1280x720 | English | H264 @ 1700 kbps | AAC @ 255 kbps | 1 h 13 min | 1.00 GiB
Genre: Drama

Drawn from interviews with survivors of Easy Company, as well as their journals and letters, Band of Brothers chronicles the experiences of these men from paratrooper training in Georgia through the end of the war. As an elite rifle company parachuting into Normandy early on D-Day morning, participants in the Battle of the Bulge, and witness to the horrors of war, the men of Easy knew extraordinary bravery and extraordinary fear - and became the stuff of legend. Based on Stephen E. Ambrose's acclaimed book of the same name.

Band.Of.Brothers.S01E10.mp4 (873.2 MB)
Band.Of.Brothers.S01E06.mp4 (944.5 MB)
Band.Of.Brothers.S01E08.mp4 (827.5 MB)
Band.Of.Brothers.S01E01.mp4 (1.0 GB)
Band.Of.Brothers.S01E05.mp4 (781.2 MB)
Band.Of.Brothers.S01E04.mp4 (837.7 MB)
Band.Of.Brothers.S01E09.mp4 (816.2 MB)
Band.Of.Brothers.S01E07.mp4 (1021.6 MB)
Band.Of.Brothers.S01E03.mp4 (916.6 MB)
Band.Of.Brothers.S01E02.mp4 (729.5 MB)



General
Complete name : ./season 01/Band.Of.Brothers.S01E01.mp4
Format : MPEG-4
Format profile : Base Media / Version 2
Codec ID : mp42 (mp42/isom/avc1)
File size : 1.00 GiB
Duration : 1 h 13 min
Overall bit rate mode : Variable
Overall bit rate : 1 961 kb/s
Encoded date : UTC 2014-05-05 15:04:46
Tagged date : UTC 2014-05-05 15:42:10
Writing application : HandBrake 0.9.9 2013052900

Video
ID : 1
Format : AVC
Format/Info : Advanced Video Codec
Format profile : Main@L4
Format settings : CABAC / 4 Ref Frames
Format settings, CABAC : Yes
Format settings, RefFrames : 4 frames
Codec ID : avc1
Codec ID/Info : Advanced Video Coding
Duration : 1 h 13 min
Bit rate : 1 700 kb/s
Width : 1 280 pixels
Height : 720 pixels
Display aspect ratio : 16:9
Frame rate mode : Variable
Frame rate : 23.976 FPS
Minimum frame rate : 23.810 FPS
Maximum frame rate : 24.390 FPS
Color space : YUV
Chroma subsampling : 4:2:0
Bit depth : 8 bits
Scan type : Progressive
Bits/(Pixel*Frame) : 0.077
Stream size : 890 MiB (87%)
Writing library : x264 core 130 r2273 b3065e6
Encoding settings : cabac=1 / ref=1 / deblock=1:0:0 / analyse=0x1:0x111 / me=hex / subme=2 / psy=1 / psy_rd=1.00:0.00 / mixed_ref=0 / me_range=16 / chroma_me=1 / trellis=0 / 8x8dct=0 / cqm=0 / deadzone=21,11 / fast_pskip=1 / chroma_qp_offset=0 / threads=12 / lookahead_threads=4 / sliced_threads=0 / nr=0 / decimate=1 / interlaced=0 / bluray_compat=0 / constrained_intra=0 / bframes=3 / b_pyramid=2 / b_adapt=1 / b_bias=0 / direct=1 / weightb=1 / open_gop=0 / weightp=1 / keyint=240 / keyint_min=24 / scenecut=40 / intra_refresh=0 / rc_lookahead=10 / rc=2pass / mbtree=1 / bitrate=1700 / ratetol=1.0 / qcomp=0.60 / qpmin=0 / qpmax=69 / qpstep=4 / cplxblur=20.0 / qblur=0.5 / vbv_maxrate=20000 / vbv_bufsize=25000 / nal_hrd=none / ip_ratio=1.40 / aq=1:1.00
Encoded date : UTC 2014-05-05 15:04:46
Tagged date : UTC 2014-05-05 15:42:10
Color range : Limited
Color primaries : BT.709
Transfer characteristics : BT.709
Matrix coefficients : BT.709

Audio
ID : 2
Format : AAC
Format/Info : Advanced Audio Codec
Format profile : LC
Codec ID : mp4a-40-2
Duration : 1 h 13 min
Bit rate mode : Variable
Bit rate : 256 kb/s
Maximum bit rate : 336 kb/s
Channel(s) : 2 channels
Channel positions : Front: L R
Sampling rate : 48.0 kHz
Frame rate : 46.875 FPS (1024 SPF)
Compression mode : Lossy
Stream size : 134 MiB (13%)
Title : Stereo
Language : English
Encoded date : UTC 2014-05-05 15:04:46
Tagged date : UTC 2014-05-05 15:42:10





Band of Brothers S01E04


Band of Brothers S01E04


Band of Brothers S01E04


Band of Brothers S01E04


Band of Brothers S01E04

All episodes