Featured TV Shows


Band of Brothers S01E04

Posted By: Tavaz
1080p (FullHD) / HDTV IMDb
Band of Brothers S01E04

Band of Brothers S01E04
HDTV | MKV | 1920x1080 | English | H265 @ 2440 kbps | DTS | 59 min 42 s | 1.88 GiB
Subtitles: Japanese
Genre: Drama

Drawn from interviews with survivors of Easy Company, as well as their journals and letters, Band of Brothers chronicles the experiences of these men from paratrooper training in Georgia through the end of the war. As an elite rifle company parachuting into Normandy early on D-Day morning, participants in the Battle of the Bulge, and witness to the horrors of war, the men of Easy knew extraordinary bravery and extraordinary fear - and became the stuff of legend. Based on Stephen E. Ambrose's acclaimed book of the same name.

b4e4ca0d9aac4fd3a89355e0be6b7d4f.mkv (1.9 GB)



General
Unique ID : 245503573921982356855036833682083034964 (0xB8B244B8F206E07995DFC8250BD03754)
Complete name : ./b4e4ca0d9aac4fd3a89355e0be6b7d4f.mkv
Format : Matroska
Format version : Version 4 / Version 2
File size : 1.88 GiB
Duration : 59 min 42 s
Overall bit rate : 4 518 kb/s
Movie name : BoB 04 Replacements BluRay 1080p Dts-HD Ma5.1 HEVC-d3g
Encoded date : UTC 2017-02-17 02:44:28
Writing application : mkvmerge v9.5.0 ('Quiet Fire') 64bit
Writing library : libebml v1.3.4 + libmatroska v1.4.5

Video
ID : 1
Format : HEVC
Format/Info : High Efficiency Video Coding
Format profile : Main@L4@Main
Codec ID : V_MPEGH/ISO/HEVC
Duration : 59 min 41 s
Bit rate : 2 441 kb/s
Width : 1 920 pixels
Height : 1 080 pixels
Display aspect ratio : 16:9
Frame rate mode : Constant
Frame rate : 23.976 (24000/1001) FPS
Color space : YUV
Chroma subsampling : 4:2:0
Bit depth : 8 bits
Bits/(Pixel*Frame) : 0.049
Stream size : 1.02 GiB (54%)
Default : Yes
Forced : No

Audio
ID : 2
Format : DTS
Format/Info : Digital Theater Systems
Format profile : MA / Core
Mode : 16
Format settings, Endianness : Big
Codec ID : A_DTS
Duration : 59 min 42 s
Bit rate mode : Variable / Constant
Bit rate : 2 048 kb/s / 1 509 kb/s
Channel(s) : 6 channels
Channel positions : Front: L C R, Side: L R, LFE
Sampling rate : 48.0 kHz
Frame rate : 93.750 FPS (512 SPF)
Bit depth : 16 bits
Compression mode : Lossless / Lossy
Stream size : 880 MiB (46%)
Language : English
Default : Yes
Forced : No

Text #1
ID : 3
Format : VobSub
Muxing mode : zlib
Codec ID : S_VOBSUB
Codec ID/Info : Picture based subtitle format used on DVDs
Duration : 54 min 5 s
Bit rate : 15.5 kb/s
Count of elements : 1753
Stream size : 5.98 MiB (0%)
Language : Japanese
Default : Yes
Forced : No

Text #2
ID : 4
Format : UTF-8
Codec ID : S_TEXT/UTF8
Codec ID/Info : UTF-8 Plain Text
Duration : 53 min 22 s
Bit rate : 34 b/s
Count of elements : 379
Stream size : 13.6 KiB (0%)
Default : No
Forced : No

Menu
00:00:00.000 : en:Chapter 01
00:02:29.149 : en:Chapter 02
00:03:54.234 : en:Chapter 03
00:11:06.874 : en:Chapter 04
00:15:14.455 : en:Chapter 05
00:18:56.093 : en:Chapter 06
00:25:34.449 : en:Chapter 07
00:40:41.647 : en:Chapter 08
00:49:06.693 : en:Chapter 09
00:52:04.830 : en:Chapter 10
00:56:36.393 : en:Chapter 11
00:59:41.578 : en:Chapter 12





Band of Brothers S01E04


Band of Brothers S01E04


Band of Brothers S01E04


Band of Brothers S01E04


Band of Brothers S01E04

All episodes