Featured TV Shows


Band of Brothers S01E05

Posted By: Tavaz
Band of Brothers S01E05

Band of Brothers S01E05
MKV | 1280x720 | English | H265 @ 1639 kbps | AC-3 @ 448 kbps | 55 min 42 s | 832 MiB
Subtitles: English
Genre: Drama

Drawn from interviews with survivors of Easy Company, as well as their journals and letters, Band of Brothers chronicles the experiences of these men from paratrooper training in Georgia through the end of the war. As an elite rifle company parachuting into Normandy early on D-Day morning, participants in the Battle of the Bulge, and witness to the horrors of war, the men of Easy knew extraordinary bravery and extraordinary fear - and became the stuff of legend. Based on Stephen E. Ambrose's acclaimed book of the same name.

kBrbXaojzYWqInpRqryTPw.mkv (832.3 MB)



General
Unique ID : 210420455859081606329933052793260541925 (0x9E4D8174938271BFAE48DC47B23F07E5)
Complete name : ./kBrbXaojzYWqInpRqryTPw.mkv
Format : Matroska
Format version : Version 4 / Version 2
File size : 832 MiB
Duration : 55 min 42 s
Overall bit rate : 2 089 kb/s
Encoded date : UTC 2016-04-23 12:56:45
Writing application : mkvmerge v8.9.0 ('Father Daughter') 64bit
Writing library : libebml v1.3.3 + libmatroska v1.4.4

Video
ID : 1
Format : HEVC
Format/Info : High Efficiency Video Coding
Format profile : Main@L3.1@Main
Codec ID : V_MPEGH/ISO/HEVC
Duration : 55 min 42 s
Bit rate : 1 639 kb/s
Width : 1 280 pixels
Height : 720 pixels
Display aspect ratio : 16:9
Frame rate mode : Constant
Frame rate : 23.976 (24000/1001) FPS
Color space : YUV
Chroma subsampling : 4:2:0
Bit depth : 8 bits
Bits/(Pixel*Frame) : 0.074
Stream size : 653 MiB (78%)
Writing library : x265 1.9+54-291beccb6760:[Windows][GCC 5.3.0][64 bit] 8bit+10bit+12bit
Encoding settings : wpp / ctu=64 / min-cu-size=8 / max-tu-size=32 / tu-intra-depth=1 / tu-inter-depth=1 / me=1 / subme=2 / merange=57 / no-rect / no-amp / max-merge=2 / temporal-mvp / no-early-skip / rdpenalty=0 / no-tskip / no-tskip-fast / strong-intra-smoothing / no-lossless / no-cu-lossless / no-constrained-intra / no-fast-intra / open-gop / no-temporal-layers / interlace=0 / keyint=250 / min-keyint=23 / scenecut=40 / rc-lookahead=30 / lookahead-slices=4 / bframes=6 / bframe-bias=0 / b-adapt=2 / ref=4 / limit-refs=3 / no-limit-modes / weightp / no-weightb / aq-mode=1 / qg-size=32 / aq-strength=1.00 / cbqpoffs=0 / crqpoffs=0 / rd=3 / psy-rd=2.00 / rdoq-level=0 / psy-rdoq=0.00 / no-rd-refine / signhide / deblock / sao / no-sao-non-deblock / b-pyramid / cutree / no-intra-refresh / rc=abr / bitrate=1688 / qcomp=0.60 / qpmin=0 / qpmax=51 / qpstep=4 / ipratio=1.40 / pbratio=1.30
Default : Yes
Forced : No

Audio
ID : 2
Format : AC-3
Format/Info : Audio Coding 3
Format settings, Endianness : Big
Codec ID : A_AC3
Duration : 55 min 42 s
Bit rate mode : Constant
Bit rate : 448 kb/s
Channel(s) : 6 channels
Channel positions : Front: L C R, Side: L R, LFE
Sampling rate : 48.0 kHz
Frame rate : 31.250 FPS (1536 SPF)
Bit depth : 16 bits
Compression mode : Lossy
Stream size : 178 MiB (21%)
Language : English
Service kind : Complete Main
Default : Yes
Forced : No

Text
ID : 3
Format : UTF-8
Codec ID : S_TEXT/UTF8
Codec ID/Info : UTF-8 Plain Text
Duration : 48 min 15 s
Bit rate : 61 b/s
Count of elements : 524
Stream size : 21.7 KiB (0%)
Language : English
Default : No
Forced : No





Band of Brothers S01E05


Band of Brothers S01E05


Band of Brothers S01E05


Band of Brothers S01E05


Band of Brothers S01E05

All episodes