Featured TV Shows


Band of Brothers S01E05

Posted By: Tavaz
1080p (FullHD) / HDTV IMDb
Band of Brothers S01E05

Band of Brothers S01E05
HDTV | MKV | 1920x1080 | English | H265 @ 2440 kbps | DTS | 55 min 41 s | 1.74 GiB
Subtitles: Japanese
Genre: Drama

Drawn from interviews with survivors of Easy Company, as well as their journals and letters, Band of Brothers chronicles the experiences of these men from paratrooper training in Georgia through the end of the war. As an elite rifle company parachuting into Normandy early on D-Day morning, participants in the Battle of the Bulge, and witness to the horrors of war, the men of Easy knew extraordinary bravery and extraordinary fear - and became the stuff of legend. Based on Stephen E. Ambrose's acclaimed book of the same name.

ebfbf7818be04fa9bb2d6b80e574ca77.mkv (1.7 GB)



General
Unique ID : 222453346525134453995097147289466132526 (0xA75AF4C4F2BBA5E5903996CF0851582E)
Complete name : ./ebfbf7818be04fa9bb2d6b80e574ca77.mkv
Format : Matroska
Format version : Version 4 / Version 2
File size : 1.74 GiB
Duration : 55 min 41 s
Overall bit rate : 4 471 kb/s
Movie name : BoB 05 Crossroads BluRay 1080p Dts-HD Ma5.1 HEVC-d3g
Encoded date : UTC 2017-02-17 02:45:14
Writing application : mkvmerge v9.5.0 ('Quiet Fire') 64bit
Writing library : libebml v1.3.4 + libmatroska v1.4.5

Video
ID : 1
Format : HEVC
Format/Info : High Efficiency Video Coding
Format profile : Main@L4@Main
Codec ID : V_MPEGH/ISO/HEVC
Duration : 55 min 40 s
Bit rate : 2 440 kb/s
Width : 1 920 pixels
Height : 1 080 pixels
Display aspect ratio : 16:9
Frame rate mode : Constant
Frame rate : 23.976 (24000/1001) FPS
Color space : YUV
Chroma subsampling : 4:2:0
Bit depth : 8 bits
Bits/(Pixel*Frame) : 0.049
Stream size : 972 MiB (55%)
Default : Yes
Forced : No

Audio
ID : 2
Format : DTS
Format/Info : Digital Theater Systems
Format profile : MA / Core
Mode : 16
Format settings, Endianness : Big
Codec ID : A_DTS
Duration : 55 min 41 s
Bit rate mode : Variable / Constant
Bit rate : 2 006 kb/s / 1 509 kb/s
Channel(s) : 6 channels
Channel positions : Front: L C R, Side: L R, LFE
Sampling rate : 48.0 kHz
Frame rate : 93.750 FPS (512 SPF)
Bit depth : 16 bits
Compression mode : Lossless / Lossy
Stream size : 799 MiB (45%)
Language : English
Default : Yes
Forced : No

Text #1
ID : 3
Format : VobSub
Muxing mode : zlib
Codec ID : S_VOBSUB
Codec ID/Info : Picture based subtitle format used on DVDs
Duration : 50 min 1 s
Bit rate : 24.6 kb/s
Count of elements : 2292
Stream size : 8.80 MiB (0%)
Language : Japanese
Default : Yes
Forced : No

Text #2
ID : 4
Format : UTF-8
Codec ID : S_TEXT/UTF8
Codec ID/Info : UTF-8 Plain Text
Duration : 48 min 15 s
Bit rate : 49 b/s
Count of elements : 472
Stream size : 17.4 KiB (0%)
Default : No
Forced : No

Menu
00:00:00.000 : en:Chapter 01
00:02:28.982 : en:Chapter 02
00:03:33.713 : en:Chapter 03
00:07:13.391 : en:Chapter 04
00:15:01.817 : en:Chapter 05
00:21:55.397 : en:Chapter 06
00:27:49.959 : en:Chapter 07
00:33:44.731 : en:Chapter 08
00:41:03.335 : en:Chapter 09
00:52:34.151 : en:Chapter 10
00:55:40.337 : en:Chapter 11





Band of Brothers S01E05


Band of Brothers S01E05


Band of Brothers S01E05


Band of Brothers S01E05


Band of Brothers S01E05

All episodes