Featured TV Shows


Band of Brothers S01E01

Posted By: Tavaz
1080p (FullHD) / BluRay Remux IMDb
Band of Brothers S01E01

Band of Brothers S01E01
BluRay Remux | MKV | 1920x1080 | English | H264 @ 37590 kbps | DTS | 1 h 13 min | 20.3 GiB
Subtitles: English
Genre: Drama

Drawn from interviews with survivors of Easy Company, as well as their journals and letters, Band of Brothers chronicles the experiences of these men from paratrooper training in Georgia through the end of the war. As an elite rifle company parachuting into Normandy early on D-Day morning, participants in the Battle of the Bulge, and witness to the horrors of war, the men of Easy knew extraordinary bravery and extraordinary fear - and became the stuff of legend. Based on Stephen E. Ambrose's acclaimed book of the same name.

4ac8b66751e446ad8b28729c5a2837c9.mkv (20.3 GB)



General
Unique ID : 196246881803028397046786083203663367690 (0x93A3C64D370AA65090C6BAB02C598E0A)
Complete name : ./4ac8b66751e446ad8b28729c5a2837c9.mkv
Format : Matroska
Format version : Version 4 / Version 2
File size : 20.3 GiB
Duration : 1 h 13 min
Overall bit rate mode : Variable
Overall bit rate : 39.8 Mb/s
Encoded date : UTC 2016-11-11 21:24:57
Writing application : mkvmerge v9.5.0 ('Quiet Fire') 64bit
Writing library : libebml v1.3.4 + libmatroska v1.4.5

Video
ID : 3
Format : AVC
Format/Info : Advanced Video Codec
Format profile : High@L4.1
Format settings : CABAC / 4 Ref Frames
Format settings, CABAC : Yes
Format settings, RefFrames : 4 frames
Codec ID : V_MPEG4/ISO/AVC
Duration : 1 h 13 min
Bit rate mode : Variable
Bit rate : 37.6 Mb/s
Maximum bit rate : 40.0 Mb/s
Width : 1 920 pixels
Height : 1 080 pixels
Display aspect ratio : 16:9
Frame rate mode : Constant
Frame rate : 23.976 (24000/1001) FPS
Color space : YUV
Chroma subsampling : 4:2:0
Bit depth : 8 bits
Scan type : Progressive
Bits/(Pixel*Frame) : 0.756
Stream size : 19.2 GiB (95%)
Default : No
Forced : No
Color range : Limited
Color primaries : BT.709
Transfer characteristics : BT.709
Matrix coefficients : BT.709

Audio
ID : 1
Format : DTS
Format/Info : Digital Theater Systems
Format profile : MA / Core
Mode : 16
Format settings, Endianness : Big
Codec ID : A_DTS
Duration : 1 h 13 min
Bit rate mode : Variable / Constant
Bit rate : 2 166 kb/s / 1 509 kb/s
Channel(s) : 6 channels
Channel positions : Front: L C R, Side: L R, LFE
Sampling rate : 48.0 kHz
Frame rate : 93.750 FPS (512 SPF)
Bit depth : 16 bits
Compression mode : Lossless / Lossy
Stream size : 1.11 GiB (5%)
Language : English
Default : Yes
Forced : No

Text
ID : 2
Format : PGS
Muxing mode : zlib
Codec ID : S_HDMV/PGS
Codec ID/Info : Picture based subtitle format used on BDs/HD-DVDs
Duration : 1 h 5 min
Bit rate : 12.1 kb/s
Count of elements : 1834
Stream size : 5.67 MiB (0%)
Language : English
Default : No
Forced : No

Menu
00:00:00.000 : en:00:00:00.000
00:01:40.100 : en:00:01:40.100
00:04:03.743 : en:00:04:03.743
00:08:25.505 : en:00:08:25.505
00:23:43.631 : en:00:23:43.631
00:28:11.106 : en:00:28:11.106
00:33:34.846 : en:00:33:34.846
00:36:21.805 : en:00:36:21.805
00:52:15.132 : en:00:52:15.132
01:01:58.214 : en:01:01:58.214
01:10:06.202 : en:01:10:06.202





Band of Brothers S01E01


Band of Brothers S01E01


Band of Brothers S01E01


Band of Brothers S01E01


Band of Brothers S01E01

All episodes