Featured TV Shows


Band of Brothers S01E07

Posted By: Tavaz
1080p (FullHD) / BluRay Remux IMDb
Band of Brothers S01E07

Band of Brothers S01E07
BluRay Remux | MKV | 1920x1080 | English | H264 @ 37875 kbps | DTS | 1 h 12 min | 20.4 GiB
Subtitles: English
Genre: Drama

Drawn from interviews with survivors of Easy Company, as well as their journals and letters, Band of Brothers chronicles the experiences of these men from paratrooper training in Georgia through the end of the war. As an elite rifle company parachuting into Normandy early on D-Day morning, participants in the Battle of the Bulge, and witness to the horrors of war, the men of Easy knew extraordinary bravery and extraordinary fear - and became the stuff of legend. Based on Stephen E. Ambrose's acclaimed book of the same name.

daaff9d58d86407eaf632045d74a8281.mkv (20.4 GB)



General
Unique ID : 240311657661038390535894693557624687792 (0xB4CA577CC32B38C2A035FACE0CC8CCB0)
Complete name : ./daaff9d58d86407eaf632045d74a8281.mkv
Format : Matroska
Format version : Version 4 / Version 2
File size : 20.4 GiB
Duration : 1 h 12 min
Overall bit rate mode : Variable
Overall bit rate : 40.1 Mb/s
Encoded date : UTC 2016-11-12 06:23:28
Writing application : mkvmerge v9.5.0 ('Quiet Fire') 64bit
Writing library : libebml v1.3.4 + libmatroska v1.4.5

Video
ID : 3
Format : AVC
Format/Info : Advanced Video Codec
Format profile : High@L4.1
Format settings : CABAC / 4 Ref Frames
Format settings, CABAC : Yes
Format settings, RefFrames : 4 frames
Codec ID : V_MPEG4/ISO/AVC
Duration : 1 h 12 min
Bit rate mode : Variable
Bit rate : 37.9 Mb/s
Maximum bit rate : 40.0 Mb/s
Width : 1 920 pixels
Height : 1 080 pixels
Display aspect ratio : 16:9
Frame rate mode : Constant
Frame rate : 23.976 (24000/1001) FPS
Color space : YUV
Chroma subsampling : 4:2:0
Bit depth : 8 bits
Scan type : Progressive
Bits/(Pixel*Frame) : 0.762
Stream size : 19.3 GiB (95%)
Default : No
Forced : No
Color range : Limited
Color primaries : BT.709
Transfer characteristics : BT.709
Matrix coefficients : BT.709

Audio
ID : 1
Format : DTS
Format/Info : Digital Theater Systems
Format profile : MA / Core
Mode : 16
Format settings, Endianness : Big
Codec ID : A_DTS
Duration : 1 h 12 min
Bit rate mode : Variable / Constant
Bit rate : 2 179 kb/s / 1 509 kb/s
Channel(s) : 6 channels
Channel positions : Front: L C R, Side: L R, LFE
Sampling rate : 48.0 kHz
Frame rate : 93.750 FPS (512 SPF)
Bit depth : 16 bits
Compression mode : Lossless / Lossy
Stream size : 1.11 GiB (5%)
Language : English
Default : Yes
Forced : No

Text
ID : 2
Format : PGS
Muxing mode : zlib
Codec ID : S_HDMV/PGS
Codec ID/Info : Picture based subtitle format used on BDs/HD-DVDs
Duration : 1 h 8 min
Bit rate : 13.7 kb/s
Count of elements : 1916
Stream size : 6.72 MiB (0%)
Language : English
Default : No
Forced : No

Menu
00:00:00.000 : en:00:00:00.000
00:01:30.090 : en:00:01:30.090
00:03:52.232 : en:00:03:52.232
00:11:15.341 : en:00:11:15.341
00:16:38.372 : en:00:16:38.372
00:22:00.319 : en:00:22:00.319
00:30:41.923 : en:00:30:41.923
00:41:17.767 : en:00:41:17.767
00:45:25.723 : en:00:45:25.723
00:51:50.607 : en:00:51:50.607
01:02:56.606 : en:01:02:56.606
01:09:43.513 : en:01:09:43.513





Band of Brothers S01E07


Band of Brothers S01E07


Band of Brothers S01E07


Band of Brothers S01E07


Band of Brothers S01E07

All episodes