Featured TV Shows


Band of Brothers S01E08

Posted By: Tavaz
1080p (FullHD) / BluRay Remux IMDb
Band of Brothers S01E08

Band of Brothers S01E08
BluRay Remux | MKV | 1920x1080 | English | H264 @ 37871 kbps | DTS | 58 min 59 s | 16.5 GiB
Subtitles: English
Genre: Drama

Drawn from interviews with survivors of Easy Company, as well as their journals and letters, Band of Brothers chronicles the experiences of these men from paratrooper training in Georgia through the end of the war. As an elite rifle company parachuting into Normandy early on D-Day morning, participants in the Battle of the Bulge, and witness to the horrors of war, the men of Easy knew extraordinary bravery and extraordinary fear - and became the stuff of legend. Based on Stephen E. Ambrose's acclaimed book of the same name.

65acce22cc2a4c7aba5aad18709c9416.mkv (16.5 GB)



General
Unique ID : 224039575921865372714147644097851179802 (0xA88C73EAAC41262092FCD5D61C02431A)
Complete name : ./65acce22cc2a4c7aba5aad18709c9416.mkv
Format : Matroska
Format version : Version 4 / Version 2
File size : 16.5 GiB
Duration : 58 min 59 s
Overall bit rate mode : Variable
Overall bit rate : 40.1 Mb/s
Encoded date : UTC 2016-11-12 06:44:35
Writing application : mkvmerge v9.5.0 ('Quiet Fire') 64bit
Writing library : libebml v1.3.4 + libmatroska v1.4.5

Video
ID : 3
Format : AVC
Format/Info : Advanced Video Codec
Format profile : High@L4.1
Format settings : CABAC / 4 Ref Frames
Format settings, CABAC : Yes
Format settings, RefFrames : 4 frames
Codec ID : V_MPEG4/ISO/AVC
Duration : 58 min 59 s
Bit rate mode : Variable
Bit rate : 37.9 Mb/s
Maximum bit rate : 40.0 Mb/s
Width : 1 920 pixels
Height : 1 080 pixels
Display aspect ratio : 16:9
Frame rate mode : Constant
Frame rate : 23.976 (24000/1001) FPS
Color space : YUV
Chroma subsampling : 4:2:0
Bit depth : 8 bits
Scan type : Progressive
Bits/(Pixel*Frame) : 0.762
Stream size : 15.6 GiB (95%)
Default : No
Forced : No
Color range : Limited
Color primaries : BT.709
Transfer characteristics : BT.709
Matrix coefficients : BT.709

Audio
ID : 1
Format : DTS
Format/Info : Digital Theater Systems
Format profile : MA / Core
Mode : 16
Format settings, Endianness : Big
Codec ID : A_DTS
Duration : 58 min 58 s
Bit rate mode : Variable / Constant
Bit rate : 2 170 kb/s / 1 509 kb/s
Channel(s) : 6 channels
Channel positions : Front: L C R, Side: L R, LFE
Sampling rate : 48.0 kHz
Frame rate : 93.750 FPS (512 SPF)
Bit depth : 16 bits
Compression mode : Lossless / Lossy
Stream size : 916 MiB (5%)
Language : English
Default : Yes
Forced : No

Text
ID : 2
Format : PGS
Muxing mode : zlib
Codec ID : S_HDMV/PGS
Codec ID/Info : Picture based subtitle format used on BDs/HD-DVDs
Duration : 52 min 55 s
Bit rate : 13.6 kb/s
Count of elements : 1546
Stream size : 5.15 MiB (0%)
Language : English
Default : No
Forced : No

Menu
00:00:00.000 : en:00:00:00.000
00:02:28.982 : en:00:02:28.982
00:03:44.975 : en:00:03:44.975
00:11:44.704 : en:00:11:44.704
00:19:14.195 : en:00:19:14.195
00:24:09.323 : en:00:24:09.323
00:32:06.925 : en:00:32:06.925
00:39:58.104 : en:00:39:58.104
00:44:32.712 : en:00:44:32.712
00:55:52.349 : en:00:55:52.349





Band of Brothers S01E08


Band of Brothers S01E08


Band of Brothers S01E08


Band of Brothers S01E08


Band of Brothers S01E08

All episodes