Featured TV Shows


Band of Brothers S01E10

Posted By: Tavaz
1080p (FullHD) / BluRay Remux IMDb
Band of Brothers S01E10

Band of Brothers S01E10
BluRay Remux | MKV | 1920x1080 | English | H264 @ 37441 kbps | DTS | 1 h 2 min | 17.2 GiB
Subtitles: English
Genre: Drama

Drawn from interviews with survivors of Easy Company, as well as their journals and letters, Band of Brothers chronicles the experiences of these men from paratrooper training in Georgia through the end of the war. As an elite rifle company parachuting into Normandy early on D-Day morning, participants in the Battle of the Bulge, and witness to the horrors of war, the men of Easy knew extraordinary bravery and extraordinary fear - and became the stuff of legend. Based on Stephen E. Ambrose's acclaimed book of the same name.

1e44cd68f2604cde95223103f108525b.mkv (17.2 GB)



General
Unique ID : 243627320852888156836642965585040013328 (0xB748EA4DD55109CFBD6BCA85E72C7810)
Complete name : ./1e44cd68f2604cde95223103f108525b.mkv
Format : Matroska
Format version : Version 4 / Version 2
File size : 17.2 GiB
Duration : 1 h 2 min
Overall bit rate mode : Variable
Overall bit rate : 39.6 Mb/s
Encoded date : UTC 2016-11-12 07:19:07
Writing application : mkvmerge v9.5.0 ('Quiet Fire') 64bit
Writing library : libebml v1.3.4 + libmatroska v1.4.5

Video
ID : 1
Format : AVC
Format/Info : Advanced Video Codec
Format profile : High@L4.1
Format settings : CABAC / 4 Ref Frames
Format settings, CABAC : Yes
Format settings, RefFrames : 4 frames
Codec ID : V_MPEG4/ISO/AVC
Duration : 1 h 2 min
Bit rate mode : Variable
Bit rate : 37.4 Mb/s
Maximum bit rate : 40.0 Mb/s
Width : 1 920 pixels
Height : 1 080 pixels
Display aspect ratio : 16:9
Frame rate mode : Constant
Frame rate : 23.976 (24000/1001) FPS
Color space : YUV
Chroma subsampling : 4:2:0
Bit depth : 8 bits
Scan type : Progressive
Bits/(Pixel*Frame) : 0.753
Stream size : 16.3 GiB (95%)
Default : No
Forced : No
Color range : Limited
Color primaries : BT.709
Transfer characteristics : BT.709
Matrix coefficients : BT.709

Audio
ID : 2
Format : DTS
Format/Info : Digital Theater Systems
Format profile : MA / Core
Mode : 16
Format settings, Endianness : Big
Codec ID : A_DTS
Duration : 1 h 2 min
Bit rate mode : Variable / Constant
Bit rate : 2 161 kb/s / 1 509 kb/s
Channel(s) : 6 channels
Channel positions : Front: L C R, Side: L R, LFE
Sampling rate : 48.0 kHz
Frame rate : 93.750 FPS (512 SPF)
Bit depth : 16 bits
Compression mode : Lossless / Lossy
Stream size : 962 MiB (5%)
Language : English
Default : Yes
Forced : No

Text
ID : 3
Format : PGS
Muxing mode : zlib
Codec ID : S_HDMV/PGS
Codec ID/Info : Picture based subtitle format used on BDs/HD-DVDs
Duration : 55 min 46 s
Bit rate : 12.4 kb/s
Count of elements : 1460
Stream size : 4.95 MiB (0%)
Language : English
Default : No
Forced : No

Menu
00:00:00.000 : en:00:00:00.000
00:02:31.151 : en:00:02:31.151
00:09:02.584 : en:00:09:02.584
00:16:50.218 : en:00:16:50.218
00:24:13.410 : en:00:24:13.410
00:31:22.255 : en:00:31:22.255
00:34:42.122 : en:00:34:42.122
00:43:54.131 : en:00:43:54.131
00:51:39.346 : en:00:51:39.346
00:56:41.898 : en:00:56:41.898
00:59:07.794 : en:00:59:07.794





Band of Brothers S01E10


Band of Brothers S01E10


Band of Brothers S01E10


Band of Brothers S01E10


Band of Brothers S01E10

All episodes