Index
# A B C D E F G H I J K L M N O P Q R S T U V W Y Z
Tags
Language
Tags

Featured TV Shows


Barry S01E06

Posted By: Tavaz
1080p (FullHD) / WEB-DL IMDb
Barry S01E06

Barry S01E06
WEB-DL | MKV | 1920x1080 | English / Italiano | H264 @ 7819 kbps | AC-3 @ 384 kbps | 28 min 41 s | 1.72 GiB
Genre: Comedy, Crime


A hit man from the Midwest moves to Los Angeles and gets caught up in the city's theatre arts scene.

Barry.1x06.Capitolo.Sei.Senti.Con.Le.Orecchie.Reagisci.Con.La.Faccia.ITA-ENG.1080p.WEBMux.DD5.1.H264-NovaRip.mkv (1.7 GB)



General
Unique ID : 133840250612037451706763119862891148934 (0x64B0B1D40B8BE06054DF07591753F686)
Complete name : ./Barry.1x06.Capitolo.Sei.Senti.Con.Le.Orecchie.Reagisci.Con.La.Faccia.ITA-ENG.1080p.WEBMux.DD5.1.H264-NovaRip.mkv
Format : Matroska
Format version : Version 2
File size : 1.72 GiB
Duration : 28 min 41 s
Overall bit rate mode : Variable
Overall bit rate : 8 590 kb/s
Encoded date : UTC 2021-05-22 17:24:09
Writing application : mkvmerge v43.0.0 ('The Quartermaster') 64-bit
Writing library : libebml v1.3.10 + libmatroska v1.5.2

Video
ID : 1
Format : AVC
Format/Info : Advanced Video Codec
Format profile : High@L4
Format settings : CABAC / 4 Ref Frames
Format settings, CABAC : Yes
Format settings, RefFrames : 4 frames
Codec ID : V_MPEG4/ISO/AVC
Duration : 28 min 41 s
Bit rate mode : Variable
Bit rate : 7 820 kb/s
Nominal bit rate : 9 598 kb/s
Maximum bit rate : 15.0 Mb/s
Width : 1 920 pixels
Height : 1 080 pixels
Display aspect ratio : 16:9
Frame rate mode : Constant
Frame rate : 25.000 FPS
Color space : YUV
Chroma subsampling : 4:2:0
Bit depth : 8 bits
Scan type : Progressive
Bits/(Pixel*Frame) : 0.151
Stream size : 1.57 GiB (91%)
Writing library : x264 core 160 r3000
Encoding settings : cabac=1 / ref=4 / deblock=1:0:0 / analyse=0x3:0x113 / me=hex / subme=4 / psy=1 / psy_rd=1.00:0.00 / mixed_ref=0 / me_range=16 / chroma_me=1 / trellis=1 / 8x8dct=1 / cqm=0 / deadzone=21,11 / fast_pskip=1 / chroma_qp_offset=-3 / threads=16 / lookahead_threads=4 / sliced_threads=0 / nr=0 / decimate=1 / interlaced=0 / bluray_compat=0 / constrained_intra=0 / bframes=3 / b_pyramid=2 / b_adapt=1 / b_bias=0 / direct=1 / weightb=1 / open_gop=0 / weightp=1 / keyint=119 / keyint_min=11 / scenecut=0 / intra_refresh=0 / rc_lookahead=20 / rc=abr / mbtree=1 / bitrate=9598 / ratetol=1.0 / qcomp=0.60 / qpmin=0 / qpmax=69 / qpstep=4 / vbv_maxrate=15000 / vbv_bufsize=31250 / nal_hrd=none / filler=0 / ip_ratio=1.40 / aq=1:1.00
Language : English
Default : Yes
Forced : Yes
Color range : Limited
Color primaries : BT.709
Transfer characteristics : BT.709
Matrix coefficients : BT.709

Audio #1
ID : 2
Format : AC-3
Format/Info : Audio Coding 3
Format settings, Endianness : Big
Codec ID : A_AC3
Duration : 28 min 41 s
Bit rate mode : Constant
Bit rate : 384 kb/s
Channel(s) : 6 channels
Channel positions : Front: L C R, Side: L R, LFE
Sampling rate : 48.0 kHz
Frame rate : 31.250 FPS (1536 SPF)
Bit depth : 16 bits
Compression mode : Lossy
Stream size : 78.8 MiB (4%)
Title : ITA
Language : Italian
Service kind : Complete Main
Default : Yes
Forced : Yes

Audio #2
ID : 3
Format : AC-3
Format/Info : Audio Coding 3
Format settings, Endianness : Big
Codec ID : A_AC3
Duration : 28 min 41 s
Bit rate mode : Constant
Bit rate : 384 kb/s
Channel(s) : 6 channels
Channel positions : Front: L C R, Side: L R, LFE
Sampling rate : 48.0 kHz
Frame rate : 31.250 FPS (1536 SPF)
Bit depth : 16 bits
Compression mode : Lossy
Stream size : 78.8 MiB (4%)
Title : ENG
Language : English
Service kind : Complete Main
Default : No
Forced : No





Barry S01E06


Barry S01E06


Barry S01E06


Barry S01E06


Barry S01E06

All episodes