Featured TV Shows


Batwoman S01E06

Posted By: Tavaz
1080p (FullHD) / WEBRip IMDb
Batwoman S01E06

Batwoman S01E06
WEB-DL | MKV | 1920x960 | German / English | H264 @ 8055 kbps | E-AC-3 @ 640 kbps | 41 min 58 s | 2.74 GiB
Subtitles: German, English


Armed with a great passion for social justice and with a great facility to always say what she thinks, Kate Kane is known in the streets of Gotham as Batwoman, a lesbian highly trained to fight crime that resurfaces in the city. However, before becoming a savior, she must fight the demons that prevent her from being the symbol of the hope of a corrupt city.

batwoman.s01e06.german.dl.1080p.web.h264-wayne.mkv (2.7 GB)



General
Unique ID : 126796635195845848743539709522002988694 (0x5F6424C6B6928EAF7CA4ED958F1E4E96)
Complete name : ./batwoman.s01e06.german.dl.1080p.web.h264-wayne.mkv
Format : Matroska
Format version : Version 4 / Version 2
File size : 2.74 GiB
Duration : 41 min 58 s
Overall bit rate : 9 338 kb/s
Encoded date : UTC 2019-12-19 23:19:11
Writing application : mkvmerge v9.8.0 ('Kuglblids') 64bit
Writing library : libebml v1.3.9 + libmatroska v1.4.5

Video
ID : 1
Format : AVC
Format/Info : Advanced Video Codec
Format profile : High@L4
Format settings : CABAC / 4 Ref Frames
Format settings, CABAC : Yes
Format settings, RefFrames : 4 frames
Codec ID : V_MPEG4/ISO/AVC
Duration : 41 min 58 s
Bit rate mode : Constant
Bit rate : 8 055 kb/s
Nominal bit rate : 10 000 kb/s
Width : 1 920 pixels
Height : 960 pixels
Display aspect ratio : 2.000
Frame rate mode : Constant
Frame rate : 23.976 (24000/1001) FPS
Color space : YUV
Chroma subsampling : 4:2:0
Bit depth : 8 bits
Scan type : Progressive
Bits/(Pixel*Frame) : 0.182
Stream size : 2.36 GiB (86%)
Default : Yes
Forced : No
Color range : Limited
Color primaries : BT.709
Transfer characteristics : BT.709
Matrix coefficients : BT.709

Audio #1
ID : 2
Format : E-AC-3
Format/Info : Enhanced Audio Coding 3
Format settings, Endianness : Big
Codec ID : A_EAC3
Duration : 41 min 58 s
Bit rate mode : Constant
Bit rate : 640 kb/s
Channel(s) : 6 channels
Channel positions : Front: L C R, Side: L R, LFE
Sampling rate : 48.0 kHz
Frame rate : 187.500 FPS (256 SPF)
Compression mode : Lossy
Stream size : 192 MiB (7%)
Language : German
Service kind : Complete Main
Default : Yes
Forced : No

Audio #2
ID : 3
Format : E-AC-3
Format/Info : Enhanced Audio Coding 3
Format settings, Endianness : Big
Codec ID : A_EAC3
Duration : 41 min 58 s
Bit rate mode : Constant
Bit rate : 640 kb/s
Channel(s) : 6 channels
Channel positions : Front: L C R, Side: L R, LFE
Sampling rate : 48.0 kHz
Frame rate : 187.500 FPS (256 SPF)
Compression mode : Lossy
Stream size : 192 MiB (7%)
Language : English
Service kind : Complete Main
Default : No
Forced : No

Text #1
ID : 4
Format : UTF-8
Codec ID : S_TEXT/UTF8
Codec ID/Info : UTF-8 Plain Text
Duration : 41 min 1 s
Bit rate : 72 b/s
Count of elements : 527
Stream size : 21.7 KiB (0%)
Title : German
Language : German
Default : No
Forced : No

Text #2
ID : 5
Format : UTF-8
Codec ID : S_TEXT/UTF8
Codec ID/Info : UTF-8 Plain Text
Duration : 41 min 0 s
Bit rate : 67 b/s
Count of elements : 510
Stream size : 20.4 KiB (0%)
Title : English
Language : English
Default : No
Forced : No





Batwoman S01E06


Batwoman S01E06


Batwoman S01E06


Batwoman S01E06


Batwoman S01E06

All episodes